Венецианский купец / The Merchant Of Venice (Майкл Рэдфорд / Michael Radford) [2004, Великобритания, Люксембург, Италия, драма, мелодрама, BDRip 720p] 2x DVO (R5, Tycoon) + Original Eng + sub (Rus, Eng)

Ответить на тему
 
Автор Сообщение

user ®

Стаж: 7 лет 7 месяцев

Сообщений: 20008

Пост Пост: #1 от 27-Апр-2014 00:40

[Цитировать]

Венецианский купец / The Merchant Of Venice- Год выпуска: 2004
Выпущено: Великобритания, Люксембург, Италия
Жанр: драма, мелодрама
Продолжительность: 02:11:43
Перевод: Профессиональный (двухголосый, закадровый) R5
+ Профессиональный (двухголосый, закадровый) Tycoon
Оригинальная звуковая дорожка: English
Cубтитры: Russian, English-Режиссер: Майкл Рэдфорд / Michael Radford
В ролях: Аль Пачино, Джереми Айронс, Джозеф Файнс, Линн Коллинс, Зулейха Робинсон, Крис Маршалл, Чарли Кокс, Хезер Голденхерш, Макензи Крук, Джон Сессионс
О фильме: Действие фильма происходит в Венеции, жители которой жизнерадостные, беспечные, щедрые люди. Они недолюбливают и высмеивают иноверца Шейлока - угрюмого, алчного ростовщика, считающего каждую копейку. Шейлок отвечает им лютой ненавистью.
Конфликт обостряется до того, что кровопролитие кажется неминуемым. Но тут вмешивается созидающая сила женской любви, которая смело противостоит мужским амбициям и побеждает!-SbR!
Релиз: by delia
Формат: MKV
Видео: 1280x542 at 23.976 fps, x264@L4.1, ~6995 kbps avg
Аудио #01: Russian: 48 kHz/16-bit, DTS 5.1, ~1509.00 kbps avg |Двухголосый закадровый, R5|
Аудио #02: Russian: 48 kHz, AC3, 3/2 (L,C,R,l,r) + LFE ch, ~448.00 kbps avg|Двухголосый закадровый, Tycoon|
Аудио #03: English: 48 kHz/16-bit, DTS 5.1, ~1509 kbps avg
Семпл-Source~Encode
-
mInfo
Формат : Matroska
Версия формата : Version 4 / Version 2
Размер файла : 9,63 Гбайт
Продолжительность : 2 ч. 11 м.
Общий поток : 10,5 Мбит/сек
Дата кодирования : UTC 2014-04-23 14:25:25
Программа кодирования : mkvmerge v6.9.1 ('Blue Panther') 32bit built on Apr 18 2014 18:15:44
Библиотека кодирования : libebml v1.3.0 + libmatroska v1.4.1
Видео
Идентификатор : 1
Формат : AVC
Формат/Информация : Advanced Video Codec
Профиль формата : High@L4.1
Параметр CABAC формата : Да
Параметр ReFrames формата : 12 кадров
Идентификатор кодека : V_MPEG4/ISO/AVC
Продолжительность : 2 ч. 11 м.
Битрейт : 6791 Кбит/сек
Ширина : 1280 пикселей
Высота : 542 пикселя
Соотношение сторон : 2,35:1
Режим частоты кадров : Постоянный
Частота кадров : 23,976 кадра/сек
Цветовое пространство : YUV
Субдискретизация насыщенности : 4:2:0
Битовая глубина : 8 бит
Тип развёртки : Прогрессивная
Бит/(Пиксели*Кадры) : 0.408
Размер потока : 6,25 Гбайт (65%)
Библиотека кодирования : x264 core 142 r2409kMod d6b4e63
Настройки программы : cabac=1 / ref=12 / deblock=1:-3:-3 / analyse=0x3:0x133 / me=tesa / subme=11 / psy=1 / fade_compensate=0.00 / psy_rd=1.10:0.05 / mixed_ref=1 / me_range=24 / chroma_me=1 / trellis=2 / 8x8dct=1 / cqm=0 / deadzone=21,11 / fast_pskip=0 / chroma_qp_offset=-3 / threads=6 / lookahead_threads=1 / sliced_threads=0 / nr=0 / decimate=1 / interlaced=0 / bluray_compat=0 / constrained_intra=0 / fgo=0 / bframes=12 / b_pyramid=2 / b_adapt=2 / b_bias=0 / direct=3 / weightb=1 / open_gop=0 / weightp=2 / keyint=250 / keyint_min=23 / scenecut=40 / intra_refresh=0 / rc_lookahead=60 / rc=crf / mbtree=0 / crf=17.0000 / qcomp=0.70 / qpmin=0 / qpmax=69 / qpstep=4 / vbv_maxrate=62500 / vbv_bufsize=78125 / crf_max=0.0 / nal_hrd=none / filler=0 / ip_ratio=1.30 / pb_ratio=1.20 / aq=1:0.80
Язык : English
Default : Да
Forced : Нет
Аудио #1
Идентификатор : 2
Формат : DTS
Формат/Информация : Digital Theater Systems
Режим : 16
Параметр Endianness формата : Big
Идентификатор кодека : A_DTS
Продолжительность : 2 ч. 11 м.
Вид битрейта : Постоянный
Битрейт : 1509 Кбит/сек
Каналы : 6 каналов
Расположение каналов : Front: L C R, Side: L R, LFE
Частота : 48,0 КГц
Битовая глубина : 16 бит
Метод сжатия : С потерями
Размер потока : 1,39 Гбайт (14%)
Заголовок : Двухголосый закадровый, R5
Язык : Russian
Default : Да
Forced : Нет
Аудио #2
Идентификатор : 3
Формат : AC-3
Формат/Информация : Audio Coding 3
Расширение режима : CM (complete main)
Параметр Endianness формата : Big
Идентификатор кодека : A_AC3
Продолжительность : 2 ч. 11 м.
Вид битрейта : Постоянный
Битрейт : 448 Кбит/сек
Каналы : 6 каналов
Расположение каналов : Front: L C R, Side: L R, LFE
Частота : 48,0 КГц
Битовая глубина : 16 бит
Метод сжатия : С потерями
Размер потока : 422 Мбайт (4%)
Заголовок : Двухголосый закадровый, Tycoon
Язык : Russian
Default : Нет
Forced : Нет
Аудио #3
Идентификатор : 4
Формат : DTS
Формат/Информация : Digital Theater Systems
Режим : 16
Параметр Endianness формата : Big
Идентификатор кодека : A_DTS
Продолжительность : 2 ч. 11 м.
Вид битрейта : Постоянный
Битрейт : 1509 Кбит/сек
Каналы : 6 каналов
Расположение каналов : Front: L C R, Side: L R, LFE
Частота : 48,0 КГц
Битовая глубина : 16 бит
Метод сжатия : С потерями
Размер потока : 1,39 Гбайт (14%)
Язык : English
Default : Нет
Forced : Нет
Текст #1
Идентификатор : 5
Формат : UTF-8
Идентификатор кодека : S_TEXT/UTF8
Идентификатор кодека/Информация : UTF-8 Plain Text
Язык : Russian
Default : Нет
Forced : Нет
Текст #2
Идентификатор : 6
Формат : UTF-8
Идентификатор кодека : S_TEXT/UTF8
Идентификатор кодека/Информация : UTF-8 Plain Text
Язык : English
Default : Нет
Forced : Нет
Меню
00:00:00.000 : en:00:00:00.000
00:06:35.353 : en:00:06:35.353
00:12:26.954 : en:00:12:26.954
00:18:52.673 : en:00:18:52.673
00:25:48.421 : en:00:25:48.421
00:30:40.213 : en:00:30:40.213
00:39:35.748 : en:00:39:35.748
00:43:37.156 : en:00:43:37.156
00:50:27.357 : en:00:50:27.357
00:58:57.242 : en:00:58:57.242
01:06:30.111 : en:01:06:30.111
01:12:57.247 : en:01:12:57.247
01:20:24.820 : en:01:20:24.820
01:23:46.062 : en:01:23:46.062
01:31:42.705 : en:01:31:42.705
01:38:51.008 : en:01:38:51.008
01:43:59.316 : en:01:43:59.316
01:49:59.342 : en:01:49:59.342
01:55:17.702 : en:01:55:17.702
02:05:33.025 : en:02:05:33.025

-
Цитата:
* Сохранены оригинальные чаптеры как на Blu-ray.
* Дорожка №1 получена путём выделения голосов с многоголоски R5.
Скачать

Скачать торрент!

Как скачивать? · Что такое торрент? · Рейтинг и ограничения

Сайт не распространяет и не хранит электронные версии произведений, а лишь предоставляет доступ к создаваемому пользователями каталогу ссылок на торрент-файлы, которые содержат только списки хеш-сумм

[Профиль] [ЛС]
Показать сообщения:    
Ответить на тему

Текущее время: Сегодня 04:00

Часовой пояс: GMT + 4



Вы не можете начинать темы
Вы не можете отвечать на сообщения
Вы не можете редактировать свои сообщения
Вы не можете удалять свои сообщения
Вы не можете голосовать в опросах
Вы не можете прикреплять файлы к сообщениям
Вы не можете скачивать файлы