Опасная погоня / Kimi yo fundo no kawa wo watare (Дзюнья Сато / Junya Sato) [1976, Япония, Триллер, Криминал, Драма, DVDRip-AVC] Dub

Ответить на тему
 
Автор Сообщение

user ®

Стаж: 11 лет

Сообщений: 15151

Пост Пост: #1 от 26-Апр-2014 19:30

[Цитировать]

Опасная погоня / Kimi yo fundo no kawa wo watare- Страна: Япония
Жанр: Триллер, Криминал, Драма
Год выпуска: 1976
Продолжительность: 02:31:28
Перевод: Профессиональный (дублированный) Дубляжная группа киностудии «Мосфильм» + The LEXX
Cубтитры: нет
Оригинальная аудиодорожка: Оригинальная японская
Режиссер: Дзюнья Сато / Junya Sato
В ролях: Кэн Такакура, Ёсио Харада, Рё Икэбэ, Рёко Накано, Хидэдзи Отаки, Мицуко Байсё, Такэтоси Найто, Эйдзи Окада, Ко Нисимура, Кай Ато

Описание: Прокурор Мориока арестован полицией по обвинению в грабежах и изнасиловании. В его квартире найдены многочисленные улики, находятся свидетели, и генеральный прокурор города Токио не верит в его невиновность. Стремясь доказать, что все это подстроено, Мориока бежит из-под стражи и, скрываясь от правосудия, начинает собственное расследование, начинает опасную погоню…

Сэмпл: http://www.sendspace.com/file/h9zm2o
Качество видео: DVDRip
Формат видео: MKV
Видео: MPEG-4 AVC/H.264, 704x302, 2.35:1, 23.976 fps, ~1 478 Kbps
Аудио: AC-3, 48.0 KHz, 192 Kbps, 2 channels (L, R)
Аудио 2: AC-3, 48.0 KHz, 384 Kbps, 2 channels (L, R)

Релиз подготовлен: nmd
Особенности перевода: Все не переведенные места (всего около 9 минут), которые не вошли в дубляж «Мосфильма», переведены и озвучены. Перевод доступен благодаря Ольге Левицкой; перевел и озвучил Андрей Григорьев
MediaInfo
General
Unique ID : 254587158209054327387827009559149359033 (0xBF87B40151AC206A96319E603F7F2FB9)
Complete name :Kimi yo fundo no kawa wo watare 1976 302p DVDRip dd2.0-nmd.mkv
Format : Matroska
Format version : Version 4 / Version 2
File size : 2.17 GiB
Duration : 2h 31mn
Overall bit rate : 2 055 Kbps
Movie name : nmd™ release
Encoded date : UTC 2014-04-26 13:31:15
Writing application : mkvmerge v6.9.1 ('Blue Panther') 32bit built on Apr 18 2014 18:15:44
Writing library : libebml v1.3.0 + libmatroska v1.4.1
Video #1
ID : 1
Format : AVC
Format/Info : Advanced Video Codec
Format profile : High@L4.1
Format settings, CABAC : Yes
Format settings, ReFrames : 9 frames
Codec ID : V_MPEG4/ISO/AVC
Duration : 2h 31mn
Bit rate : 1 478 Kbps
Width : 704 pixels
Height : 302 pixels
Display aspect ratio : 2.35:1
Frame rate mode : Constant
Frame rate : 23.976 fps
Color space : YUV
Chroma subsampling : 4:2:0
Bit depth : 8 bits
Scan type : Progressive
Bits/(Pixel*Frame) : 0.290
Stream size : 1.52 GiB (70%)
Title : Kimi yo fundo no kawa wo watare 1976 302p DVDRip dd2.0-nmd
Writing library : x264 core 125 r2208 d9d2288
Encoding settings : cabac=1 / ref=9 / deblock=1:-3:-3 / analyse=0x3:0x113 / me=umh / subme=11 / psy=1 / psy_rd=1.00:0.20 / mixed_ref=1 / me_range=32 / chroma_me=1 / trellis=2 / 8x8dct=1 / cqm=0 / deadzone=21,11 / fast_pskip=0 / chroma_qp_offset=-3 / threads=9 / lookahead_threads=1 / sliced_threads=0 / nr=0 / decimate=0 / interlaced=0 / bluray_compat=0 / constrained_intra=0 / bframes=6 / b_pyramid=2 / b_adapt=2 / b_bias=0 / direct=3 / weightb=1 / open_gop=0 / weightp=2 / keyint=250 / keyint_min=23 / scenecut=40 / intra_refresh=0 / rc_lookahead=40 / rc=2pass / mbtree=0 / bitrate=1478 / ratetol=1.0 / qcomp=0.60 / qpmin=0 / qpmax=69 / qpstep=4 / cplxblur=20.0 / qblur=0.5 / vbv_maxrate=50000 / vbv_bufsize=50000 / nal_hrd=none / ip_ratio=1.40 / pb_ratio=1.30 / aq=1:1.00
Language : Japanese
Default : Yes
Forced : No
Color primaries : BT.709
Transfer characteristics : BT.709
Matrix coefficients : BT.709
Audio #2
ID : 2
Format : AC-3
Format/Info : Audio Coding 3
Mode extension : CM (complete main)
Format settings, Endianness : Big
Codec ID : A_AC3
Duration : 2h 31mn
Bit rate mode : Constant
Bit rate : 192 Kbps
Channel count : 2 channels
Channel positions : Front: L R
Sampling rate : 48.0 KHz
Bit depth : 16 bits
Compression mode : Lossy
Stream size : 208 MiB (9%)
Title : ac3 2.0 @ 192 kbps |Советский дубляж + LEXX|
Language : Russian
Default : Yes
Forced : Yes
Audio #3
ID : 3
Format : AC-3
Format/Info : Audio Coding 3
Mode extension : CM (complete main)
Format settings, Endianness : Big
Codec ID : A_AC3
Duration : 2h 31mn
Bit rate mode : Constant
Bit rate : 384 Kbps
Channel count : 2 channels
Channel positions : Front: L R
Sampling rate : 48.0 KHz
Bit depth : 16 bits
Compression mode : Lossy
Stream size : 416 MiB (19%)
Title : ac3 2.0 @ 384 kbps |Оригинал|
Language : Japanese
Default : No
Forced : No
Скриншот c названием фильма Скриншоты Торрент-файл перезалит 26-04-2014; изменена звуковая дорожка "Мосфильма"
Скачать

Скачать торрент! Опасная погоня / Kimi yo fundo no kawa wo watare (Дзюнья Сато / Junya Sato) [1976, Япония, Триллер, Криминал, Драма, DVDRip-AVC] Dub

Как скачивать? · Что такое торрент? · Рейтинг и ограничения

Сайт не распространяет и не хранит электронные версии произведений, а лишь предоставляет доступ к создаваемому пользователями каталогу ссылок на торрент-файлы, которые содержат только списки хеш-сумм

[Профиль] [ЛС]
Показать сообщения:    
Ответить на тему

Текущее время: Сегодня 19:23

Часовой пояс: GMT + 4



Вы не можете начинать темы
Вы не можете отвечать на сообщения
Вы не можете редактировать свои сообщения
Вы не можете удалять свои сообщения
Вы не можете голосовать в опросах
Вы не можете прикреплять файлы к сообщениям
Вы не можете скачивать файлы