Тёмный мир: Равновесие (Олег Асадулин) [2013, фэнтези, приключения, DVDRip]

Ответить на тему
 
Автор Сообщение

user ®

Стаж: 7 лет 7 месяцев

Сообщений: 20008

Пост Пост: #1 от 26-Апр-2014 19:30

[Цитировать]

Тёмный мир: Равновесие
Жанр: фэнтези, приключения
Год выпуска: 2013
Продолжительность: 01:31:23
Режиссер: Олег Асадулин
В ролях: Мария Пирогова, Павел Прилучный, Макар Запорожский, Евгения Брик, Александр Ратников, Владислав Абашин, Петр Семак, Алиса Хазанова, Валерий Опёнкин, Тимофей Носков
Описание: Каждый день они крадут твои силы, твои эмоции, твою любовь. Мы называем их Тени. Работа таких, как мы — доставлять их обратно в Тёмный мир. Надвигается катастрофа, и человечество может оказаться во власти тьмы…
И только мы можем сохранить равновесие.

Сэмпл: http://sendfile.su/972161
Качество видео: DVDRip
Формат видео: AVI
Видео: XviD 73, 624x352 (16:9), 25.000 fps, 1000 Kbps
Аудио: MP3, 48.0 kHz, 128 Kbps, 2 ch, CBR
Релиз от: Scarabey
MediaInfo
General
Complete name                            : Temnyy.mir.Ravnovesie.2013.O.DVDRip.avi
Format                                   : AVI
Format/Info                              : Audio Video Interleave
File size                                : 744 MiB
Duration                                 : 1h 31mn
Overall bit rate                         : 1 138 Kbps
Writing application                      : VirtualDubMod 1.5.10.3 | www.virtualdub-fr.org || (build 2550/release)
Writing library                          : VirtualDubMod build 2550/release
Video
ID                                       : 0
Format                                   : MPEG-4 Visual
Format profile                           : Advanced Simple@L5
Format settings, BVOP                    : 1
Format settings, QPel                    : No
Format settings, GMC                     : No warppoints
Format settings, Matrix                  : Custom
Codec ID                                 : XVID
Codec ID/Hint                            : XviD
Duration                                 : 1h 31mn
Bit rate                                 : 1 000 Kbps
Width                                    : 624 pixels
Height                                   : 352 pixels
Display aspect ratio                     : 16:9
Frame rate                               : 25.000 fps
Color space                              : YUV
Chroma subsampling                       : 4:2:0
Bit depth                                : 8 bits
Scan type                                : Progressive
Compression mode                         : Lossy
Bits/(Pixel*Frame)                       : 0.182
Stream size                              : 654 MiB (88%)
Writing library                          : XviD 73
Audio
ID                                       : 1
Format                                   : MPEG Audio
Format version                           : Version 1
Format profile                           : Layer 3
Codec ID                                 : 55
Codec ID/Hint                            : MP3
Duration                                 : 1h 31mn
Bit rate mode                            : Constant
Bit rate                                 : 128 Kbps
Channel(s)                               : 2 channels
Sampling rate                            : 48.0 KHz
Compression mode                         : Lossy
Stream size                              : 83.7 MiB (11%)
Alignment                                : Aligned on interleaves
Interleave, duration                     : 40 ms (1.00 video frame)
Interleave, preload duration             : 504 ms
Writing library                          : LAME3.99r
Encoding settings                        : -m s -V 4 -q 2 -lowpass 17 -b 128
Скриншот c названием фильма Скриншоты
Скачать

Скачать торрент!

Как скачивать? · Что такое торрент? · Рейтинг и ограничения

Сайт не распространяет и не хранит электронные версии произведений, а лишь предоставляет доступ к создаваемому пользователями каталогу ссылок на торрент-файлы, которые содержат только списки хеш-сумм

[Профиль] [ЛС]
Показать сообщения:    
Ответить на тему

Текущее время: Сегодня 02:16

Часовой пояс: GMT + 4



Вы не можете начинать темы
Вы не можете отвечать на сообщения
Вы не можете редактировать свои сообщения
Вы не можете удалять свои сообщения
Вы не можете голосовать в опросах
Вы не можете прикреплять файлы к сообщениям
Вы не можете скачивать файлы