Стартап (Евгений Ткачук) [2014, Драма, биография, WEB-DLRip]

Ответить на тему
 
Автор Сообщение

user ®

Стаж: 7 лет 7 месяцев

Сообщений: 20008

Пост Пост: #1 от 26-Апр-2014 19:30

[Цитировать]

Стартап
Жанр: Драма, биография
Год выпуска: 2014
Продолжительность: 01:26:04
Режиссёр: Евгений Ткачук
В ролях: Евгений Ткачук, Шамиль Хаматов, Иева Андреевайте, Семён Морозов, Эммануил Виторган, Андрей Соколов, Дмитрий Богдан, Вера Панфилова, Антон Шурцов, Андрей Назимов
Описание: Как в России честно заработать своим умом? Как добиться успеха и утвердить своё имя в мире бизнеса? Чем жертвует и что приобретает человек, который много лет стремится к своей цели? История создания с нуля крупного российского поискового портала. 20 лет риска, трудов, надежды, 20 лет дружбы…

Качество видео: WEB-DLRip (Исходник: WEB-DL (720p))
Формат видео: AVI
Видео: XviD, 704x320 (2.2:1), 25 кадр/с, 2045 Кбит/с
Аудио: Русский, Dolby AC3, 48000 Гц, 384 Кбит/с, 6 каналов (5.1)

Автор рипа - ivandubskoj
MediaInfo
General
Complete name : Startap.2014.WEB-DLRip.avi
Format : AVI
Format/Info : Audio Video Interleave
File size : 1.46 GiB
Duration : 1h 26mn
Overall bit rate : 2 436 Kbps
Movie name : Стартап (2014) WEB-DLRip
Genre : Драма, биография
Recorded date : 26.04.2014
Writing application : VirtualDubMod 1.5.10.3 | www.virtualdub-fr.org || (build 2550/release)
Writing library : VirtualDubMod build 2550/release
Copyright : rip by ivandubskoj
Video
ID : 0
Format : MPEG-4 Visual
Format profile : Advanced Simple@L5
Format settings, BVOP : 1
Format settings, QPel : No
Format settings, GMC : No warppoints
Format settings, Matrix : Default (MPEG)
Codec ID : XVID
Codec ID/Hint : XviD
Duration : 1h 26mn
Bit rate : 2 044 Kbps
Width : 704 pixels
Height : 320 pixels
Display aspect ratio : 2.2:1
Frame rate : 25.000 fps
Color space : YUV
Chroma subsampling : 4:2:0
Bit depth : 8 bits
Scan type : Progressive
Compression mode : Lossy
Bits/(Pixel*Frame) : 0.363
Stream size : 1.23 GiB (84%)
Writing library : XviD 73
Audio
ID : 1
Format : AC-3
Format/Info : Audio Coding 3
Mode extension : CM (complete main)
Codec ID : 2000
Duration : 1h 26mn
Bit rate mode : Constant
Bit rate : 384 Kbps
Channel(s) : 6 channels
Channel positions : Front: L C R, Side: L R, LFE
Sampling rate : 48.0 KHz
Bit depth : 16 bits
Compression mode : Lossy
Stream size : 236 MiB (16%)
Alignment : Split accross interleaves
Interleave, duration : 64 ms (1.60 video frames)
Interleave, preload duration : 500 ms
Title : Russian
Скриншот c названием фильма Скриншоты
Скачать

Скачать торрент!

Как скачивать? · Что такое торрент? · Рейтинг и ограничения

Сайт не распространяет и не хранит электронные версии произведений, а лишь предоставляет доступ к создаваемому пользователями каталогу ссылок на торрент-файлы, которые содержат только списки хеш-сумм

[Профиль] [ЛС]
Показать сообщения:    
Ответить на тему

Текущее время: Сегодня 01:48

Часовой пояс: GMT + 4



Вы не можете начинать темы
Вы не можете отвечать на сообщения
Вы не можете редактировать свои сообщения
Вы не можете удалять свои сообщения
Вы не можете голосовать в опросах
Вы не можете прикреплять файлы к сообщениям
Вы не можете скачивать файлы