Урод (Роман Качанов мл.) [1993, Россия, гротескная музыкальная комедия, DVB] (Ностальгия)

Ответить на тему
 
Автор Сообщение

user ®

Стаж: 7 лет 7 месяцев

Сообщений: 20008

Пост Пост: #1 от 26-Апр-2014 19:30

[Цитировать]

Урод- Год выпуска: 1993
Страна: Россия
Жанр: гротескная музыкальная комедия
Продолжительность: 01:26:22
Перевод: не требуется
субтитры: отсутствуют-Режиссёр: Роман Качанов мл.
В ролях: Геннадий Бортников, Сергей Галкин, Сергей Лебедев, Константин Марков, Вячеслав Невинный мл., Джоанна Стингрей, Никита Высоцкий, Алексей Золотницкий, Борис Шитиков, Ирина Гордина-Описание: В одном из московских роддомов случилось ЧП: ребенок родился уже взрослым детиной - на вид лет под 30! С первых же минут он начал говорить, а через два дня научился читать. Спецслужбы начинают за ним охоту. Казалось бы, положение безнадежное, но... Судьба дает ему шанс в лице прекрасной женщины.- -Качество: DVB
Формат: MPEG-PS
Видео: MPEG Video, 720x576, 25 fps, ~4 147 kbps avg, 0.400 bit/pixel
Аудио: MPEG Audio, 48,0 КГц, 192 Кбит/сек, 2 канала MediaInfo
Общее
Полное имя : D:\Фильмы\Урод\Ypod.1993.DVB.mpg
Формат : MPEG-PS
Размер файла : 2,67 Гбайт
Продолжительность : 1 ч. 26 м.
Режим общего битрейта : Переменный
Общий поток : 4427 Кбит/сек
Видео
Идентификатор : 224 (0xE0)
Формат : MPEG Video
Версия формата : Version 2
Профиль формата : Main@Main
Параметр BVOP формата : Да
Параметр матрицы формата : Выборочная
Параметр GOP формата : Variable
Продолжительность : 1 ч. 26 м.
Вид битрейта : Переменный
Битрейт : 4147 Кбит/сек
Максимальный битрейт : 15,0 Мбит/сек
Ширина : 720 пикселей
Высота : 576 пикселей
Соотношение сторон : 4:3
Частота кадров : 25,000 кадров/сек
Стандарт вещания : PAL
Цветовое пространство : YUV
Субдискретизация насыщенности : 4:2:0
Битовая глубина : 8 бит
Тип развёртки : Чересстрочная
Порядок развёртки : Верхнее поле первое
Метод сжатия : С потерями
Бит/(Пиксели*Кадры) : 0.400
Временной код первого кадра : 00:00:00:00
Оригинал временного кода : Group of pictures header
Размер потока : 2,50 Гбайт (94%)
Аудио
Идентификатор : 192 (0xC0)
Формат : MPEG Audio
Версия формата : Version 1
Профиль формата : Layer 2
Продолжительность : 1 ч. 26 м.
Вид битрейта : Постоянный
Битрейт : 192 Кбит/сек
Каналы : 2 канала
Частота : 48,0 КГц
Метод сжатия : С потерями
Задержка видео : 6 мс.
Размер потока : 119 Мбайт (4%)
____________________________________________
Стою на раздаче до 5 дней.
Просьба скачавшим как можно дольше не покидать раздачу!
ВСЕМ ПРИЯТНОГО ПРОСМОТРА!_________________________________________
Скачать

Скачать торрент!

Как скачивать? · Что такое торрент? · Рейтинг и ограничения

Сайт не распространяет и не хранит электронные версии произведений, а лишь предоставляет доступ к создаваемому пользователями каталогу ссылок на торрент-файлы, которые содержат только списки хеш-сумм

[Профиль] [ЛС]
Показать сообщения:    
Ответить на тему

Текущее время: Сегодня 07:05

Часовой пояс: GMT + 4



Вы не можете начинать темы
Вы не можете отвечать на сообщения
Вы не можете редактировать свои сообщения
Вы не можете удалять свои сообщения
Вы не можете голосовать в опросах
Вы не можете прикреплять файлы к сообщениям
Вы не можете скачивать файлы