Пока смерть не разлучит нас / Death Do Us Part (Николас Хемфрис / Nicholas Humphries) [2014, Канада, ужасы, триллер, WEB-DLRip] VO

Ответить на тему
 
Автор Сообщение

user ®

Стаж: 7 лет 7 месяцев

Сообщений: 20008

Пост Пост: #1 от 26-Апр-2014 16:20

[Цитировать]

Пока смерть не разлучит нас / Death Do Us Part
Страна: Канада
Жанр: ужасы, триллер
Год выпуска: 2014
Продолжительность: 01:29:03
Перевод: Одноголосый закадровый datynet
Cубтитры: нет
Оригинальная аудиодорожка: нет
Режиссер: Николас Хемфрис / Nicholas Humphries
В ролях: Джулия Андерсон, Питер Бенсон, Эмили Уллерап, Кристин Шателейн, Кайл Кэсси, Бенджамин Эйрс, Дэйв Коллетт, Аарон Дуглас, Вив Ликок
Описание: Богатая светская львица Кеннеди Джэмисон всю свою жизнь мечтала об идеальной свадьбе. И вот наконец-то она помолвлена с очаровательным Райаном Харрисом, который через неделю станет её мужем, для полного счастья не хватает только последней холостяцкой вечеринки. Шафер Райана, Чет, арендует отдаленный домик в лесу, чтобы устроить им настоящий праздник, который они не забудут никогда. Но постепенно события принимают ужасающий оборот, члены компании начинают жестоко погибать один за другим. Что-то произошло, и празднование быстро превращается в кровавый кошмар. Дружба разорвана, и шквал обвинений друг друга в этом злодеянии дополняет психологический ужас, поворачивая его в сторону детективного романа.
Доп. информация:
Sample
Качество видео: WEB-DLRip
Формат видео: MKV
Видео: MPEG4 Video (H264) 1280x720 23.976fps 3 090 Kbps
Аудио: Dolby AC3 44100Hz stereo 384kbps
MediaInfo
General
Unique ID : 249381555585296975440573104450526577441 (0xBB9D23FAF378DF47B3AEEA13C0150321)
Complete name : C:\Users\Вика\Desktop\Death.Do.Us.Part.2014.720p.WEBRip.x264.AC3.mkv
Format : Matroska
Format version : Version 4 / Version 2
File size : 2.16 GiB
Duration : 1h 29mn
Overall bit rate : 3 473 Kbps
Encoded date : UTC 2014-04-26 04:06:31
Writing application : mkvmerge v6.9.1 ('Blue Panther') 64bit built on Apr 18 2014 18:23:38
Writing library : libebml v1.3.0 + libmatroska v1.4.1
Video
ID : 1
Format : AVC
Format/Info : Advanced Video Codec
Format profile : High@L5.1
Format settings, CABAC : Yes
Format settings, ReFrames : 3 frames
Codec ID : V_MPEG4/ISO/AVC
Duration : 1h 29mn
Bit rate : 3 090 Kbps
Width : 1 280 pixels
Height : 720 pixels
Display aspect ratio : 16:9
Frame rate mode : Constant
Frame rate : 23.976 fps
Color space : YUV
Chroma subsampling : 4:2:0
Bit depth : 8 bits
Scan type : Progressive
Bits/(Pixel*Frame) : 0.140
Stream size : 1.88 GiB (87%)
Writing library : x264 core 129 r2245 bc13772
Encoding settings : cabac=1 / ref=2 / deblock=1:-1:-1 / analyse=0x3:0x113 / me=hex / subme=6 / psy=1 / psy_rd=1.00:0.15 / mixed_ref=1 / me_range=16 / chroma_me=1 / trellis=1 / 8x8dct=1 / cqm=0 / deadzone=21,11 / fast_pskip=1 / chroma_qp_offset=-5 / threads=6 / lookahead_threads=1 / sliced_threads=0 / nr=0 / decimate=1 / interlaced=0 / bluray_compat=0 / constrained_intra=0 / bframes=3 / b_pyramid=1 / b_adapt=1 / b_bias=0 / direct=1 / weightb=1 / open_gop=0 / weightp=1 / keyint=240 / keyint_min=23 / scenecut=40 / intra_refresh=0 / rc_lookahead=30 / rc=2pass / mbtree=1 / bitrate=3090 / ratetol=1.0 / qcomp=0.60 / qpmin=0 / qpmax=69 / qpstep=4 / cplxblur=20.0 / qblur=0.5 / vbv_maxrate=300000 / vbv_bufsize=300000 / nal_hrd=none / ip_ratio=1.40 / aq=1:1.00
Default : Yes
Forced : No
Color primaries : Generic film
Audio
ID : 2
Format : AC-3
Format/Info : Audio Coding 3
Mode extension : CM (complete main)
Format settings, Endianness : Big
Codec ID : A_AC3
Duration : 1h 29mn
Bit rate mode : Constant
Bit rate : 384 Kbps
Channel count : 2 channels
Channel positions : Front: L R
Sampling rate : 44.1 KHz
Bit depth : 16 bits
Compression mode : Lossy
Stream size : 245 MiB (11%)
Default : Yes
Forced : No
Скриншот c названием фильма Скриншоты
Скачать

Скачать торрент!

Как скачивать? · Что такое торрент? · Рейтинг и ограничения

Сайт не распространяет и не хранит электронные версии произведений, а лишь предоставляет доступ к создаваемому пользователями каталогу ссылок на торрент-файлы, которые содержат только списки хеш-сумм

[Профиль] [ЛС]
Показать сообщения:    
Ответить на тему

Текущее время: Сегодня 09:49

Часовой пояс: GMT + 4



Вы не можете начинать темы
Вы не можете отвечать на сообщения
Вы не можете редактировать свои сообщения
Вы не можете удалять свои сообщения
Вы не можете голосовать в опросах
Вы не можете прикреплять файлы к сообщениям
Вы не можете скачивать файлы