Стартап (Евгений Ткачук) [2014, Биография, Драма, WEB-DLRip]

Ответить на тему
 
Автор Сообщение

user ®

Стаж: 7 лет 7 месяцев

Сообщений: 20008

Пост Пост: #1 от 25-Апр-2014 22:30

[Цитировать]

Стартап
Жанр: Биография, Драма
Год выпуска: 2014
Продолжительность: 01:26:04
Режиссёр: Евгений Ткачук
В ролях: Евгений Ткачук, Шамиль Хаматов, Иева Андреевайте, Семен Морозов, Эммануил Виторган, Андрей Соколов, Дмитрий Богдан, Вера Панфилова, Антон Шурцов, Андрей Назимов
Описание: Как в России честно заработать своим умом? Как добиться успеха и утвердить свое имя в мире бизнеса? Чем жертвует и что приобретает человек, который много лет стремится к своей цели? История создания с нуля крупного российского поискового портала. 20 лет риска, трудов, надежды, 20 лет дружбы.
Доп. информация:
Сэмпл: http://multi-up.com/969511
Качество видео: WEB-DLRip [рип с WEB-DL 720p]
Формат видео: AVI
Видео: XVID, 704x320 (2,2:1), 25,000 кадров/сек, 1880 Кбит/сек
Аудио: AC-3, 48,0 КГц, 384 Кбит/сек (6 каналов)

MediaInfo

Формат : AVI
Формат/Информация : Audio Video Interleave
Размер файла : 1,37 Гбайт
Продолжительность : 1 ч. 26 м.
Общий поток : 2274 Кбит/сек
Программа кодирования : VirtualDubMod 1.5.10.3 | www.virtualdub-fr.org || (build 2550/release)
Библиотека кодирования : VirtualDubMod build 2550/release
Видео
Идентификатор : 0
Формат : MPEG-4 Visual
Профиль формата : Advanced Simple@L5
Параметр BVOP формата : 2
Параметр QPel формата : Нет
Параметр GMC формата : Без точки перехода
Параметр матрицы формата : Default (MPEG)
Идентификатор кодека : XVID
Идентификатор кодека/Подсказка : XviD
Продолжительность : 1 ч. 26 м.
Битрейт : 1880 Кбит/сек
Ширина : 704 пикселя
Высота : 320 пикселей
Соотношение сторон : 2,2:1
Частота кадров : 25,000 кадров/сек
Цветовое пространство : YUV
Субдискретизация насыщенности : 4:2:0
Битовая глубина : 8 бит
Тип развёртки : Прогрессивная
Метод сжатия : С потерями
Бит/(Пиксели*Кадры) : 0.334
Размер потока : 1,13 Гбайт (83%)
Библиотека кодирования : XviD 1.2.1 (UTC 2008-12-04)
Аудио
Идентификатор : 1
Формат : AC-3
Формат/Информация : Audio Coding 3
Расширение режима : CM (complete main)
Параметр Endianness формата : Big
Идентификатор кодека : 2000
Продолжительность : 1 ч. 26 м.
Вид битрейта : Постоянный
Битрейт : 384 Кбит/сек
Каналы : 6 каналов
Расположение каналов : Front: L C R, Side: L R, LFE
Частота : 48,0 КГц
Битовая глубина : 16 бит
Метод сжатия : С потерями
Размер потока : 236 Мбайт (17%)
Выравнивание : Разделение по промежуткам
Продолжительность промежутка : 40 мс. (1,00 видеокадр)
Время предзагрузки промежутка : 500 мс.

Скриншоты

Скачать

Скачать торрент!

Как скачивать? · Что такое торрент? · Рейтинг и ограничения

Сайт не распространяет и не хранит электронные версии произведений, а лишь предоставляет доступ к создаваемому пользователями каталогу ссылок на торрент-файлы, которые содержат только списки хеш-сумм

[Профиль] [ЛС]
Показать сообщения:    
Ответить на тему

Текущее время: Сегодня 04:07

Часовой пояс: GMT + 4



Вы не можете начинать темы
Вы не можете отвечать на сообщения
Вы не можете редактировать свои сообщения
Вы не можете удалять свои сообщения
Вы не можете голосовать в опросах
Вы не можете прикреплять файлы к сообщениям
Вы не можете скачивать файлы