Открытая дверь / Doors Open (Марк Эванс / Marc Evans) [2012, Великобритания, Криминал, драма, HDTV 1080i] MVO

Ответить на тему
 
Автор Сообщение

user ®

Стаж: 7 лет 7 месяцев

Сообщений: 20008

Пост Пост: #1 от 24-Апр-2014 23:40

[Цитировать]

Открытая дверь / Doors Open Страна: Великобритания
Жанр: Криминал, драма
Год выпуска: 2012
Продолжительность: 01:39:53
Перевод: Профессиональный (многоголосый закадровый)
Cубтитры: нет
Режиссер: Марк Эванс / Marc Evans
В ролях: Стивен Фрай, Дуглас Хеншэлл, Кеннет Коллар, Ленора Кричлоу, Сара МакКарди, Эллиот Кауэн, Филип Уитчeрч, Пол МакКоул, Джордан Янг
Описание:
Майк Маккензи (Дуглас Хеншелл) – скучающий миллионер, заработавший капитал собственными силами. Неожиданно его друг и эксперт по искусству профессор Роберт Гиссинг (Стивен Фрай) предлагает ему план, казалось бы, безупречного ограбления Шотландской Национальной галереи. Грабить нужно лишь небольшое хранилище, где разместили самые драгоценные экспонаты, стоимость которых превышает несколько миллиардов. В День открытых дверей их можно похитить, а с помощью хитроумного трюка удастся запутать следствие. Майк решает воплотить идею в жизнь и обращается за помощью к профессионалу…
Доп. информация: Запись со спутника с 1 HD канала.

Сэмпл: http://sendfile.su/971627
Тип релиза: HDTV 1080i
Контейнер: TS
Видео: AVC/H.264, PAL, 1920x1080 (16:9), 5245 Кбит/сек, 25.000 fps
Аудио : русский, AC-3, 48000 Hz, 192 Кбит/сек, 2 ch

MediaInfo

Видео
Идентификатор : 4113 (0x1011)
Идентификатор меню : 1 (0x1)
Формат : AVC
Формат/Информация : Advanced Video Codec
Профиль формата : High@L4.0
Параметр CABAC формата : Да
Параметр ReFrames формата : 3 кадра
Параметр GOP формата : M=4, N=28
Идентификатор кодека : 27
Продолжительность : 1 ч. 39 м.
Вид битрейта : Переменный
Битрейт : 5245 Кбит/сек
Максимальный битрейт : 40,0 Мбит/сек
Ширина : 1920 пикселей
Высота : 1080 пикселей
Соотношение сторон : 16:9
Частота кадров : 25,000 кадров/сек
Стандарт вещания : Component
Цветовое пространство : YUV
Субдискретизация насыщенности : 4:2:0
Битовая глубина : 8 бит
Тип развёртки : Чересстрочная
Порядок развёртки : Верхнее поле первое
Бит/(Пиксели*Кадры) : 0.101
Размер потока : 3,66 Гбайт (92%)
Основные цвета : BT.709
Характеристики трансфера : BT.709
Коэффициенты матрицы : BT.709
Аудио
Идентификатор : 4352 (0x1100)
Идентификатор меню : 1 (0x1)
Формат : AC-3
Формат/Информация : Audio Coding 3
Расширение режима : CM (complete main)
Параметр Endianness формата : Big
Идентификатор кодека : 129
Продолжительность : 1 ч. 39 м.
Вид битрейта : Постоянный
Битрейт : 192 Кбит/сек
Каналы : 2 канала
Расположение каналов : Front: L R
Частота : 48,0 КГц
Битовая глубина : 16 бит
Метод сжатия : С потерями
Размер потока : 137 Мбайт (3%)

Скриншот c названием фильма

Скриншоты

Раздаю с 19:00 до 24:00 (МСК)
Скачать

Скачать торрент!

Как скачивать? · Что такое торрент? · Рейтинг и ограничения

Сайт не распространяет и не хранит электронные версии произведений, а лишь предоставляет доступ к создаваемому пользователями каталогу ссылок на торрент-файлы, которые содержат только списки хеш-сумм

[Профиль] [ЛС]
Показать сообщения:    
Ответить на тему

Текущее время: Сегодня 18:25

Часовой пояс: GMT + 4



Вы не можете начинать темы
Вы не можете отвечать на сообщения
Вы не можете редактировать свои сообщения
Вы не можете удалять свои сообщения
Вы не можете голосовать в опросах
Вы не можете прикреплять файлы к сообщениям
Вы не можете скачивать файлы