Семья Джетсонов / Jetsons: The Movie (Джозеф Барбера / Joseph Barbera, Уильям Ханна / William Hanna) [1990, мультфильм, мюзикл, фантастика, комедия, семейный, WEB-DL 1080p] 2xMVO + AVO + UKR + ENG

Ответить на тему
 
Автор Сообщение

user ®

Стаж: 13 лет

Сообщений: 15041

Пост Пост: #1 от 24-Апр-2014 20:30

[Цитировать]

Семья Джетсонов / Jetsons: The Movie
Страна: США
Жанр: мультфильм, мюзикл, фантастика, комедия, семейный
Продолжительность: 01:22:09
Год выпуска: 1990
Перевод: Профессиональный (многоголосый закадровый)
Перевод 2: Профессиональный (многоголосый закадровый)
Перевод 3: Авторский (одноголосый закадровый)
Перевод 4: Профессиональный (многоголосый закадровый, украинский)
Русские субтитры: нет
Режиссёр: Джозеф Барбера / Joseph Barbera, Уильям Ханна / William Hanna
Роли озвучивали: Джордж О’Хенлон, Мэл Бланк, Пенни Синглтон, Патрик Л. Зиммерман, Дон Мессик, Джин Вандер Пул, Ронни Шелл, Патти Дьютч, Дэна Хилл
Описание: Космические приключения Джорджа Джетсона, которого назначили вице-президентом компании Спейсли Спрокетс, и отправили со своей семьей работать на орбитальный горнорудный астероид…
Доп. информация:
- Оцифровка перевода Вартана Дохалова с VHS сделана bora86bora.
- За Проф перевод с R2 спасибо Ibraghim.
- За Проф перевод с канала СТС спасибо огромное Slink (озвучено "6 канал" Санкт-Петербург по заказу "СТС" 1998 год).
- Проф перевод с канала СТС был немного неудачно записан во время рекламы, поэтому присутсвует 4 вставки с Проф перевода R2.
- Работа со звуком - bora86bora.
- Украинская дорожка взята с сайта hurtom.
Качество: WEB-DL
Формат: MKV
Видео: AVC | 1920x1040 | 23.976 (fps), ~5100 kbps
Аудио: AC-3 | 48 Hz | 2 (ch) | 192 (kbps) [русский | закадровый многоголосый | R2]
Аудио 2: AC-3 | 48 Hz | 2 (ch) | 192 (kbps) [русский | закадровый многоголосый | СТС]
Аудио 3: AC-3 | 48 Hz | 2 (ch) | 192 (kbps) [русский | одноголосый закадровый | Дохалов]
Аудио 4: AC-3 | 48 Hz | 2 (ch) | 192 (kbps) [украинский | закадровый многоголосый | Новiй канал]
Аудио 5: AAC | 48 Hz | 2 (ch) | 192 (kbps) [английский]
sample
Субтитры: отсутствуют

Подробные технические данные

Format : MatroskaFormat version : Version 2File size : 3.40 GiBDuration : 1h 22mnOverall bit rate : 5 917 KbpsEncoded date : UTC 2014-04-24 14:07:22Writing application : mkvmerge v5.0.1 ('Es ist Sommer') built on Nov 6 2011 16:23:40Writing library : libebml v1.2.2 + libmatroska v1.3.0
VideoID : 1Format : AVCFormat/Info : Advanced Video CodecFormat profile : High@L4.0Format settings, CABAC : YesFormat settings, ReFrames : 4 framesCodec ID : V_MPEG4/ISO/AVCDuration : 1h 22mnWidth : 1 920 pixelsHeight : 1 040 pixelsDisplay aspect ratio : 16:9Frame rate : 23.976 fpsColor space : YUVChroma subsampling : 4:2:0Bit depth : 8 bitsScan type : ProgressiveLanguage : EnglishDefault : YesForced : NoColor primaries : BT.709-5, BT.1361, IEC 61966-2-4, SMPTE RP177Transfer characteristics : BT.709-5, BT.1361Matrix coefficients : BT.709-5, BT.1361, IEC 61966-2-4 709, SMPTE RP177
Audio #1ID : 2Format : AC-3Format/Info : Audio Coding 3Mode extension : CM (complete main)Codec ID : A_AC3Duration : 1h 22mnBit rate mode : ConstantBit rate : 192 KbpsChannel(s) : 2 channelsChannel positions : Front: L RSampling rate : 48.0 KHzBit depth : 16 bitsCompression mode : LossyStream size : 113 MiB (3%)Title : MVO (R5)Language : RussianDefault : YesForced : No
Audio #2ID : 3Format : AC-3Format/Info : Audio Coding 3Mode extension : CM (complete main)Codec ID : A_AC3Duration : 1h 22mnBit rate mode : ConstantBit rate : 192 KbpsChannel(s) : 1 channelChannel positions : Front: CSampling rate : 48.0 KHzBit depth : 16 bitsCompression mode : LossyStream size : 113 MiB (3%)Title : MVO (CTC)Language : RussianDefault : NoForced : No
Audio #3ID : 4Format : AC-3Format/Info : Audio Coding 3Mode extension : CM (complete main)Codec ID : A_AC3Duration : 1h 22mnBit rate mode : ConstantBit rate : 192 KbpsChannel(s) : 2 channelsChannel positions : Front: L RSampling rate : 48.0 KHzBit depth : 16 bitsCompression mode : LossyStream size : 113 MiB (3%)Title : AVO (Дохалов)Language : RussianDefault : NoForced : No
Audio #4ID : 5Format : AC-3Format/Info : Audio Coding 3Mode extension : CM (complete main)Codec ID : A_AC3Duration : 1h 22mnBit rate mode : ConstantBit rate : 192 KbpsChannel(s) : 2 channelsChannel positions : Front: L RSampling rate : 48.0 KHzBit depth : 16 bitsCompression mode : LossyStream size : 113 MiB (3%)Title : MVO (Новiй)Language : UkrainianDefault : NoForced : No
Audio #5ID : 6Format : AACFormat/Info : Advanced Audio CodecFormat profile : HE-AAC / LCCodec ID : A_AACDuration : 1h 22mnChannel(s) : 2 channelsChannel positions : Front: L RSampling rate : 48.0 KHz / 24.0 KHzCompression mode : LossyLanguage : EnglishDefault : NoForced : No

Скриншоты

Скачать

Скачать торрент! Семья Джетсонов / Jetsons: The Movie (Джозеф Барбера / Joseph Barbera, Уильям Ханна / William Hanna) [1990, мультфильм, мюзикл, фантастика, комедия, семейный, WEB-DL 1080p] 2xMVO + AVO + UKR + ENG

Как скачивать? · Что такое торрент? · Рейтинг и ограничения

Сайт не распространяет и не хранит электронные версии произведений, а лишь предоставляет доступ к создаваемому пользователями каталогу ссылок на торрент-файлы, которые содержат только списки хеш-сумм

[Профиль] [ЛС]
Показать сообщения:    
Ответить на тему

Текущее время: Сегодня 00:39

Часовой пояс: GMT + 4



Вы не можете начинать темы
Вы не можете отвечать на сообщения
Вы не можете редактировать свои сообщения
Вы не можете удалять свои сообщения
Вы не можете голосовать в опросах
Вы не можете прикреплять файлы к сообщениям
Вы не можете скачивать файлы