Мачете / Machete (Роберт Родригес / Robert Rodriguez, Этан Маникис / Ethan Maniquis) [2010, США, боевик, триллер, комедия, криминал, BDRip 720p] Dub + 4x AVO (Гаврилов, Горчаков, Карповский, Сербин) + Original (Eng) + Sub (2xRus, Eng)

Ответить на тему
 
Автор Сообщение

user ®

Стаж: 7 лет 7 месяцев

Сообщений: 20008

Пост Пост: #1 от 24-Апр-2014 02:45

[Цитировать]

Мачете / Machete
«He was given an offer he couldn't refuse...»
Выпущено: США, 20th Century Fox Film Corporation
Жанр: боевик, триллер, комедия, криминал
Год выпуска: 2010
Продолжительность: 01:44:59-Перевод #1: Профессиональный (полное дублирование) [Blu-Ray Rus]
Перевод #2: Авторский (одноголосый закадровый) [А. Гаврилов]
Перевод #3: Авторский (одноголосый закадровый) [В. Горчаков]
Перевод #4: Авторский (одноголосый закадровый) [А. Карповский]
Перевод #5: Авторский (одноголосый закадровый) [Ю. Сербин]
Оригинальная аудиодорожка: английская
Cубтитры: русские, русские (без цензуры), английские-Режиссер: Этан Маникис, Роберт Родригес
В ролях: Дэнни Трехо, Джессика Альба, Мишель Родригес, Джефф Фэйи, Роберт Де Ниро, Стивен Сигал, Чич Марин, Дон Джонсон, Ши Уигхэм, Линдси Лохан-О фильме: Во время покушения на сенатора опытный наемник Мачете обнаружил, что находится на мушке у снайпера. С трудом избежав смерти, он узнает, что его подставили собственные наниматели и теперь его целью является месть.- -Формат: MKV (x264)
Качество: BDRip 720p [EbP]
Видео: 8000 kb/s, 1280x694, 23.976 fps, 1.85:1
Аудио #1: DTS, 1536 kb/s, 6 ch, 48 КГц, 16 бит [Дубляж]
Аудио #2: DTS, 768 kb/s, 6 ch, 48 КГц, 24 бит [А. Гаврилов]
Аудио #3: DTS, 1536 kb/s, 6 ch, 48 КГц, 24 бит [В. Горчаков]
Аудио #4: DTS, 1536 kb/s, 6 ch, 48 КГц, 24 бит [А. Карповский]
Аудио #5: DTS, 1536 kb/s, 6 ch, 48 КГц, 16 бит [Ю. Сербин]
Аудио #6: DTS, 1536 kb/s, 6 ch, 48 КГц, 24 бит [Оригинал]

Скриншоты

Source vs EbP



Source vs EbP vs CHD

MediaInfo

Формат                                   : Matroska
Версия формата                           : Version 4 / Version 2
Размер файла                             : 12,0 Гбайт
Продолжительность                        : 1 ч. 44 м.
Общий поток                              : 16,3 Мбит/сек
Дата кодирования                         : UTC 2014-04-11 00:33:50
Программа кодирования                    : mkvmerge v6.7.0 ('Back to the Ground') 64bit built on Jan  8 2014 15:10:52
Библиотека кодирования                   : libebml v1.3.0 + libmatroska v1.4.1
Видео
Идентификатор                            : 1
Формат                                   : AVC
Формат/Информация                        : Advanced Video Codec
Профиль формата                          : High@L4.1
Параметр CABAC формата                   : Да
Параметр ReFrames формата                : 9 кадров
Идентификатор кодека                     : V_MPEG4/ISO/AVC
Продолжительность                        : 1 ч. 44 м.
Битрейт                                  : 8000 Кбит/сек
Ширина                                   : 1280 пикселей
Высота                                   : 694 пикселя
Соотношение сторон                       : 1,85:1
Режим частоты кадров                     : Постоянный
Частота кадров                           : 23,976 кадра/сек
Цветовое пространство                    : YUV
Субдискретизация насыщенности            : 4:2:0
Битовая глубина                          : 8 бит
Тип развёртки                            : Прогрессивная
Бит/(Пиксели*Кадры)                      : 0.376
Размер потока                            : 5,63 Гбайт (47%)
Библиотека кодирования                   : x264 core 110 r1820 fdcf2ae
Настройки программы                      : cabac=1 / ref=9 / deblock=1:-3:-3 / analyse=0x3:0x113 / me=tesa / subme=10 / psy=1 / psy_rd=1.05:0.00 / mixed_ref=1 / me_range=16 / chroma_me=1 / trellis=2 / 8x8dct=1 / cqm=0 / deadzone=21,11 / fast_pskip=0 / chroma_qp_offset=-2 / threads=12 / sliced_threads=0 / nr=0 / decimate=0 / interlaced=0 / constrained_intra=0 / bframes=7 / b_pyramid=2 / b_adapt=2 / b_bias=0 / direct=3 / weightb=1 / open_gop=0 / weightp=2 / keyint=250 / keyint_min=23 / scenecut=40 / intra_refresh=0 / rc=2pass / mbtree=0 / bitrate=8000 / ratetol=1.0 / qcomp=0.60 / qpmin=0 / qpmax=51 / qpstep=4 / cplxblur=20.0 / qblur=0.5 / ip_ratio=1.40 / pb_ratio=1.30 / aq=1:0.75
Default                                  : Нет
Forced                                   : Нет
Аудио #1
Идентификатор                            : 2
Формат                                   : DTS
Формат/Информация                        : Digital Theater Systems
Режим                                    : 16
Параметр Endianness формата              : Big
Идентификатор кодека                     : A_DTS
Продолжительность                        : 1 ч. 44 м.
Вид битрейта                             : Постоянный
Битрейт                                  : 1509 Кбит/сек
Каналы                                   : 6 каналов
Расположение каналов                     : Front: L C R, Side: L R, LFE
Частота                                  : 48,0 КГц
Битовая глубина                          : 16 бит
Метод сжатия                             : С потерями
Размер потока                            : 1,11 Гбайт (9%)
Заголовок                                : DUB
Язык                                     : Russian
Default                                  : Да
Forced                                   : Нет
Аудио #2
Идентификатор                            : 3
Формат                                   : DTS
Формат/Информация                        : Digital Theater Systems
Режим                                    : 16
Параметр Endianness формата              : Big
Идентификатор кодека                     : A_DTS
Продолжительность                        : 1 ч. 44 м.
Вид битрейта                             : Постоянный
Битрейт                                  : 768 Кбит/сек
Каналы                                   : 6 каналов
Расположение каналов                     : Front: L C R, Side: L R, LFE
Частота                                  : 48,0 КГц
Битовая глубина                          : 24 бит
Метод сжатия                             : С потерями
Размер потока                            : 577 Мбайт (5%)
Заголовок                                : AVO, Gavrilov
Язык                                     : Russian
Default                                  : Нет
Forced                                   : Нет
Аудио #3
Идентификатор                            : 4
Формат                                   : DTS
Формат/Информация                        : Digital Theater Systems
Режим                                    : 16
Параметр Endianness формата              : Big
Идентификатор кодека                     : A_DTS
Продолжительность                        : 1 ч. 44 м.
Вид битрейта                             : Постоянный
Битрейт                                  : 1509 Кбит/сек
Каналы                                   : 6 каналов
Расположение каналов                     : Front: L C R, Side: L R, LFE
Частота                                  : 48,0 КГц
Битовая глубина                          : 24 бит
Метод сжатия                             : С потерями
Размер потока                            : 1,11 Гбайт (9%)
Заголовок                                : AVO, Gorchakov
Язык                                     : Russian
Default                                  : Нет
Forced                                   : Нет
Аудио #4
Идентификатор                            : 5
Формат                                   : DTS
Формат/Информация                        : Digital Theater Systems
Режим                                    : 16
Параметр Endianness формата              : Big
Идентификатор кодека                     : A_DTS
Продолжительность                        : 1 ч. 44 м.
Вид битрейта                             : Постоянный
Битрейт                                  : 1509 Кбит/сек
Каналы                                   : 6 каналов
Расположение каналов                     : Front: L C R, Side: L R, LFE
Частота                                  : 48,0 КГц
Битовая глубина                          : 24 бит
Метод сжатия                             : С потерями
Размер потока                            : 1,11 Гбайт (9%)
Заголовок                                : AVO, Karpovskiy
Язык                                     : Russian
Default                                  : Нет
Forced                                   : Нет
Аудио #5
Идентификатор                            : 6
Формат                                   : DTS
Формат/Информация                        : Digital Theater Systems
Режим                                    : 16
Параметр Endianness формата              : Big
Идентификатор кодека                     : A_DTS
Продолжительность                        : 1 ч. 44 м.
Вид битрейта                             : Постоянный
Битрейт                                  : 1510 Кбит/сек
Каналы                                   : 6 каналов
Расположение каналов                     : Front: L C R, Side: L R, LFE
Частота                                  : 48,0 КГц
Битовая глубина                          : 16 бит
Метод сжатия                             : С потерями
Размер потока                            : 1,11 Гбайт (9%)
Заголовок                                : AVO, Serbin
Язык                                     : Russian
Default                                  : Нет
Forced                                   : Нет
Аудио #6
Идентификатор                            : 7
Формат                                   : DTS
Формат/Информация                        : Digital Theater Systems
Режим                                    : 16
Параметр Endianness формата              : Big
Идентификатор кодека                     : A_DTS
Продолжительность                        : 1 ч. 44 м.
Вид битрейта                             : Постоянный
Битрейт                                  : 1509 Кбит/сек
Каналы                                   : 6 каналов
Расположение каналов                     : Front: L C R, Side: L R, LFE
Частота                                  : 48,0 КГц
Битовая глубина                          : 24 бит
Метод сжатия                             : С потерями
Размер потока                            : 1,11 Гбайт (9%)
Язык                                     : English
Default                                  : Нет
Forced                                   : Нет
Текст #1
Идентификатор                            : 8
Формат                                   : UTF-8
Идентификатор кодека                     : S_TEXT/UTF8
Идентификатор кодека/Информация          : UTF-8 Plain Text
Язык                                     : Russian
Default                                  : Да
Forced                                   : Нет
Текст #2
Идентификатор                            : 9
Формат                                   : UTF-8
Идентификатор кодека                     : S_TEXT/UTF8
Идентификатор кодека/Информация          : UTF-8 Plain Text
Заголовок                                : Uncensored
Язык                                     : Russian
Default                                  : Нет
Forced                                   : Нет
Текст #3
Идентификатор                            : 10
Формат                                   : UTF-8
Идентификатор кодека                     : S_TEXT/UTF8
Идентификатор кодека/Информация          : UTF-8 Plain Text
Язык                                     : English
Default                                  : Нет
Forced                                   : Нет
Меню
00:00:00.000                             : en:00:00:00.000
00:06:07.951                             : en:00:06:07.951
00:07:43.254                             : en:00:07:43.254
00:12:39.050                             : en:00:12:39.050
00:16:16.100                             : en:00:16:16.100
00:23:05.217                             : en:00:23:05.217
00:27:21.348                             : en:00:27:21.348
00:29:07.371                             : en:00:29:07.371
00:34:02.457                             : en:00:34:02.457
00:37:53.646                             : en:00:37:53.646
00:39:47.260                             : en:00:39:47.260
00:44:11.983                             : en:00:44:11.983
00:47:41.192                             : en:00:47:41.192
00:50:52.967                             : en:00:50:52.967
00:53:12.815                             : en:00:53:12.815
00:57:32.532                             : en:00:57:32.532
00:59:40.577                             : en:00:59:40.577
01:03:48.116                             : en:01:03:48.116
01:07:57.240                             : en:01:07:57.240
01:12:05.446                             : en:01:12:05.446
01:15:04.208                             : en:01:15:04.208
01:21:37.643                             : en:01:21:37.643
01:24:04.748                             : en:01:24:04.748
01:25:50.354                             : en:01:25:50.354
01:28:04.779                             : en:01:28:04.779
01:33:56.548                             : en:01:33:56.548
01:38:01.918                             : en:01:38:01.918
01:40:47.458                             : en:01:40:47.458
Авторские переводы доступны благодаря пользователям форума e180.
Скачать

Скачать торрент!

Как скачивать? · Что такое торрент? · Рейтинг и ограничения

Сайт не распространяет и не хранит электронные версии произведений, а лишь предоставляет доступ к создаваемому пользователями каталогу ссылок на торрент-файлы, которые содержат только списки хеш-сумм

[Профиль] [ЛС]
Показать сообщения:    
Ответить на тему

Текущее время: Сегодня 08:12

Часовой пояс: GMT + 4



Вы не можете начинать темы
Вы не можете отвечать на сообщения
Вы не можете редактировать свои сообщения
Вы не можете удалять свои сообщения
Вы не можете голосовать в опросах
Вы не можете прикреплять файлы к сообщениям
Вы не можете скачивать файлы