Пришествие Дьявола / Devil\'s Due (Мэттью Беттинелли, Тайлер Джиллетт / Matt Bettinelli-Olpin, Tyler Gillett) [2014, США, ужасы, BDRip 1080p] Dub + Original (Eng) + Sub (Rus, Eng)

Ответить на тему
 
Автор Сообщение

user ®

Стаж: 7 лет 7 месяцев

Сообщений: 20008

Пост Пост: #1 от 24-Апр-2014 02:45

[Цитировать]

Пришествие Дьявола / Devil's Due
Страна: США
Производство: Davis Entertainment, Twentieth Century Fox Film Corporation
Жанр: ужасы
Год выпуска: 2014
Продолжительность: 01:29:01
Перевод: Профессиональный (дублированный) Blu-ray CEE
Оригинальная аудиодорожка: английская
Cубтитры: русские (с лицензии, комментарии), английские (SDH Colored, комментарии)
Режиссер: Мэттью Беттинелли, Тайлер Джиллетт / Matt Bettinelli-Olpin, Tyler Gillett
В ролях: Эллисон Миллер, Зак Гилфорд, Роберт Белуши, Майкл Пападжон, Сэм Андерсон, Ванесса Рей, Джеральдин Сингер, Джулия Дентон, Колин Уокер, Айми Кареро, Донна ДюПлантье, Роберт Абердин, Кэтрин Кресги, Дуглас М. Гриффин
Описание: После необычной ночи во время медового месяца молодожены узнают, что ждут ребенка. Муж начинает замечать изменения в поведении жены, поначалу они списывают это на нервы, но по прошествии нескольких месяцев становится очевидным, что перемены в ее теле и разуме имеют зловещее происхождение…

Релиз: fanatus
Качество видео: BDRip 1080p
Исходник: Devils.Due.2014.MULTi.COMPLETE.BLURAY-HDCLUB
Контейнер: MKV
Видео: MPEG-4 AVC, 14.9 Mbps , 1920x1036 (1.85:1), 23.976 fps, 0.312 bit/pixel
Аудио 1: русский (DTS, 6 ch, 48 kHz, 755 kbps) Dub[Blu-ray CEE]
Аудио 2: английский (DTS, 6 ch, 48 kHz, 1510 kbps) Original
Аудио 3: английский (AC3, 2 ch, 48 kHz, 224 kbps) Commentary
Формат субтитров: softsub (SRT)
Главы: есть

MediaInfo

General
Unique ID : 215344931744230662665170510463379131758 (0xA201ECDCA5EEA766ABF2B2001AB74D6E)
Complete name : F:\Devils_Due.2014.x264.BDRip.1080p.fanatus.mkv
Format : Matroska
Format version : Version 2
File size : 10.8 GiB
Duration : 1h 29mn
Overall bit rate : 17.3 Mbps
Movie name : Devils Due (2014) - fanatus
Encoded date : UTC 2014-04-22 15:39:17
Writing application : mkvmerge v3.4.0 ('Rapunzel') сборка от May 15 2010 09:38:20
Writing library : libebml v0.8.0 + libmatroska v0.9.0
Video
ID : 1
Format : AVC
Format/Info : Advanced Video Codec
Format profile : High@L4.1
Format settings, CABAC : Yes
Format settings, ReFrames : 4 frames
Codec ID : V_MPEG4/ISO/AVC
Duration : 1h 29mn
Bit rate : 14.9 Mbps
Width : 1 920 pixels
Height : 1 036 pixels
Display aspect ratio : 1.85:1
Frame rate : 23.976 fps
Color space : YUV
Chroma subsampling : 4:2:0
Bit depth : 8 bits
Scan type : Progressive
Bits/(Pixel*Frame) : 0.312
Stream size : 9.02 GiB (84%)
Title : Devils Due (2014) BDRip 1080p
Writing library : x264 core 142 r2409 d6b4e63
Encoding settings : cabac=1 / ref=4 / deblock=1:-3:-3 / analyse=0x3:0x113 / me=tesa / subme=11 / psy=1 / psy_rd=1.00:0.15 / mixed_ref=1 / me_range=48 / chroma_me=1 / trellis=2 / 8x8dct=1 / cqm=0 / deadzone=21,11 / fast_pskip=0 / chroma_qp_offset=-3 / threads=16 / lookahead_threads=4 / sliced_threads=0 / nr=0 / decimate=0 / interlaced=0 / bluray_compat=0 / constrained_intra=0 / bframes=10 / b_pyramid=2 / b_adapt=2 / b_bias=0 / direct=3 / weightb=1 / open_gop=0 / weightp=2 / keyint=240 / keyint_min=23 / scenecut=40 / intra_refresh=0 / rc_lookahead=240 / rc=2pass / mbtree=1 / bitrate=14900 / ratetol=1.0 / qcomp=0.75 / qpmin=0 / qpmax=69 / qpstep=4 / cplxblur=20.0 / qblur=0.5 / vbv_maxrate=50000 / vbv_bufsize=62500 / nal_hrd=none / filler=0 / ip_ratio=1.30 / aq=1:0.70
Language : English
Default : Yes
Forced : No
Audio #1
ID : 2
Format : DTS
Format/Info : Digital Theater Systems
Codec ID : A_DTS
Duration : 1h 29mn
Bit rate mode : Constant
Bit rate : 755 Kbps
Channel(s) : 6 channels
Channel positions : Front: L C R, Side: L R, LFE
Sampling rate : 48.0 KHz
Bit depth : 24 bits
Compression mode : Lossy
Stream size : 480 MiB (4%)
Title : Dub (BD CEE)
Language : Russian
Default : Yes
Forced : No
Audio #2
ID : 3
Format : DTS
Format/Info : Digital Theater Systems
Codec ID : A_DTS
Duration : 1h 29mn
Bit rate mode : Constant
Bit rate : 1 510 Kbps
Channel(s) : 6 channels
Channel positions : Front: L C R, Side: L R, LFE
Sampling rate : 48.0 KHz
Bit depth : 24 bits
Compression mode : Lossy
Stream size : 961 MiB (9%)
Title : Original
Language : English
Default : No
Forced : No
Audio #3
ID : 4
Format : AC-3
Format/Info : Audio Coding 3
Mode extension : CM (complete main)
Format settings, Endianness : Big
Codec ID : A_AC3
Duration : 1h 29mn
Bit rate mode : Constant
Bit rate : 224 Kbps
Channel(s) : 2 channels
Channel positions : Front: L R
Sampling rate : 48.0 KHz
Bit depth : 16 bits
Compression mode : Lossy
Stream size : 143 MiB (1%)
Title : Comments
Language : English
Default : No
Forced : No
Text #1
ID : 5
Format : UTF-8
Codec ID : S_TEXT/UTF8
Codec ID/Info : UTF-8 Plain Text
Title : Full
Language : Russian
Default : No
Forced : No
Text #2
ID : 6
Format : UTF-8
Codec ID : S_TEXT/UTF8
Codec ID/Info : UTF-8 Plain Text
Title : Comments
Language : Russian
Default : No
Forced : No
Text #3
ID : 7
Format : UTF-8
Codec ID : S_TEXT/UTF8
Codec ID/Info : UTF-8 Plain Text
Title : SDH Colored
Language : English
Default : No
Forced : No
Text #4
ID : 8
Format : UTF-8
Codec ID : S_TEXT/UTF8
Codec ID/Info : UTF-8 Plain Text
Title : Comments
Language : English
Default : No
Forced : No
Menu
00:05:30.496 : en:(01)00:05:30:496
00:08:17.663 : en:(02)00:08:17:663
00:10:44.644 : en:(03)00:10:44:644
00:12:47.475 : en:(04)00:12:47:475
00:14:57.229 : en:(05)00:14:57:229
00:18:15.719 : en:(06)00:18:15:719
00:20:38.362 : en:(07)00:20:38:362
00:24:21.835 : en:(08)00:24:21:835
00:26:13.029 : en:(09)00:26:13:029
00:29:47.368 : en:(10)00:29:47:368
00:34:04.459 : en:(11)00:34:04:459
00:35:38.886 : en:(12)00:35:38:886
00:39:39.835 : en:(13)00:39:39:835
00:43:09.545 : en:(14)00:43:09:545
00:46:16.398 : en:(15)00:46:16:398
00:48:32.451 : en:(16)00:48:32:451
00:52:11.545 : en:(17)00:52:11:545
00:55:35.498 : en:(18)00:55:35:498
00:58:24.417 : en:(19)00:58:24:417
01:01:36.192 : en:(20)01:01:36:192
01:04:35.872 : en:(21)01:04:35:872
01:07:56.572 : en:(22)01:07:56:572
01:10:15.628 : en:(23)01:10:15:628
01:14:53.238 : en:(24)01:14:53:238
01:18:19.820 : en:(25)01:18:19:820
01:21:36.808 : en:(26)01:21:36:808
01:23:59.826 : en:(27)01:23:59:826
01:29:01.085 : en:(28)01:29:01:085

x264 [info]

---[Information] [20.04.2014 21:46:51] [raw [info]: 1920x1036p 1:1 @ 24000/1001 fps (cfr)
---[Information] [20.04.2014 21:46:51] x264 [info]: using SAR=1/1
---[Information] [20.04.2014 21:46:51] x264 [info]: using cpu capabilities: MMX2 SSE2Fast SSSE3 SSE4.2 AVX
---[Information] [20.04.2014 21:46:51] x264 [info]: profile High, level 4.1
---[Information] [22.04.2014 12:36:43] x264 [info]: frame I:593 Avg QP:15.80 size:184190
---[Information] [22.04.2014 12:36:43] x264 [info]: frame P:34588 Avg QP:18.15 size:106613
---[Information] [22.04.2014 12:36:43] x264 [info]: frame B:92883 Avg QP:18.78 size: 65696
---[Information] [22.04.2014 12:36:43] x264 [info]: consecutive B-frames: 6.4% 6.9% 11.0% 18.7% 13.2% 27.7% 5.6% 6.7% 1.8% 0.7% 1.3%
---[Information] [22.04.2014 12:36:43] x264 [info]: mb I I16..4: 10.5% 78.1% 11.4%
---[Information] [22.04.2014 12:36:43] x264 [info]: mb P I16..4: 2.0% 25.3% 1.7% P16..4: 25.5% 30.7% 9.0% 0.0% 0.0% skip: 5.7%
---[Information] [22.04.2014 12:36:43] x264 [info]: mb B I16..4: 0.2% 5.5% 0.3% B16..8: 33.0% 24.4% 4.6% direct:12.8% skip:19.2% L0:45.1% L1:43.9% BI:11.0%
---[Information] [22.04.2014 12:36:43] x264 [info]: 8x8 transform intra:88.5% inter:59.1%
---[Information] [22.04.2014 12:36:43] x264 [info]: direct mvs spatial:97.7% temporal:2.3%
---[Information] [22.04.2014 12:36:43] x264 [info]: coded y,uvDC,uvAC intra: 91.4% 85.3% 58.5% inter: 48.7% 44.6% 13.1%
---[Information] [22.04.2014 12:36:43] x264 [info]: i16 v,h,dc,p: 14% 10% 7% 68%
---[Information] [22.04.2014 12:36:43] x264 [info]: i8 v,h,dc,ddl,ddr,vr,hd,vl,hu: 8% 9% 10% 10% 12% 11% 12% 12% 15%
---[Information] [22.04.2014 12:36:43] x264 [info]: i4 v,h,dc,ddl,ddr,vr,hd,vl,hu: 13% 16% 7% 7% 12% 11% 12% 9% 11%
---[Information] [22.04.2014 12:36:43] x264 [info]: i8c dc,h,v,p: 42% 25% 17% 15%
---[Information] [22.04.2014 12:36:43] x264 [info]: Weighted P-Frames: Y:4.2% UV:1.9%
---[Information] [22.04.2014 12:36:43] x264 [info]: ref P L0: 55.1% 6.8% 23.9% 11.8% 2.3% 0.1%
---[Information] [22.04.2014 12:36:43] x264 [info]: ref B L0: 83.8% 13.2% 3.0%
---[Information] [22.04.2014 12:36:43] x264 [info]: ref B L1: 90.8% 9.2%
---[Information] [22.04.2014 12:36:43] x264 [info]: kb/s:14825.91
---[Information] [22.04.2014 12:36:43] encoded 128064 frames, 0.92 fps, 14825.91 kb/s

Скриншот c названием фильма

Скриншоты

Скачать

Скачать торрент!

Как скачивать? · Что такое торрент? · Рейтинг и ограничения

Сайт не распространяет и не хранит электронные версии произведений, а лишь предоставляет доступ к создаваемому пользователями каталогу ссылок на торрент-файлы, которые содержат только списки хеш-сумм

[Профиль] [ЛС]
Показать сообщения:    
Ответить на тему

Текущее время: Сегодня 18:28

Часовой пояс: GMT + 4



Вы не можете начинать темы
Вы не можете отвечать на сообщения
Вы не можете редактировать свои сообщения
Вы не можете удалять свои сообщения
Вы не можете голосовать в опросах
Вы не можете прикреплять файлы к сообщениям
Вы не можете скачивать файлы