Этот неловкий момент / That Awkward Moment (Том Гормикэн / Tom Gormican) [2014, США, мелодрама, комедия, WEB-DLRip-AVC] Dub

Ответить на тему
 
Автор Сообщение

user ®

Стаж: 7 лет 7 месяцев

Сообщений: 20008

Пост Пост: #1 от 24-Апр-2014 02:45

[Цитировать]

Этот неловкий момент / That Awkward Moment
«Когда ты понимаешь: добиться многого - значит мыслить по-крупному»
-Страна: США
Студия: Aversano Films, Ninjas Runnin' Wild Productions, Treehouse Pictures, Virgin Produced, What If It Barks Films
Жанр: мелодрама, комедия
Год выпуска: 2014
Продолжительность: 01:34:45
Перевод: Профессиональный (дублированный) [Лицензия] R5
Cубтитры: нет
Оригинальная аудиодорожка: нет-Режиссер: Том Гормикэн / Tom Gormican
В ролях: Зак Эфрон, Майлз Теллер, Майкл Б. Джордан, Имоджен Путс, Маккензи Дэвис, Джессика Лукас, Эддисон Тимлин, Джош Пэйс, Эвелина Обоза, Карен Людвиг...
Описание: Джейсон, Дэниел и Майкл — типичные обитатели Манхеттена, красивые остроумные парни. После того, как одного из них бросает подружка, они клянутся больше никогда не заводить с девушками серьезных отношений. Но очень скоро, после кучи «неловких моментов», они встречают настоящую любовь. И как теперь быть с дружеской сделкой?-Автор рипа: _Flash- -Качество видео: WEB-DLRip-AVC
Формат видео: MKV
Видео: 1024x426, 24.000 fps, 2 pass, x 264, ~ 1814 kbps avg, 0.175 bit/pixel
Аудио: 48 kHz, Dolby AC3, 6 ch, 384 kbps-Дополнительно: Сохранены оригинальные чаптеры (главы) как на Blu-ray
-

Дополнительно о фильме:

Технические детали съёмки:

Производство, студия дубляжа, прокат:

Ошибки в фильме

MediaInfo

Общее
Уникальный идентификатор : 218760771889268088380210493958912203280 (0xA493CAC8A171EF428FEEDFE9E3C3DA10)
Полное имя : C:\Users\1\Desktop\Etot.nelovkiy.moment.2014.D.WEB-DLRip-AVC.By_Flash.mkv
Формат : Matroska
Версия формата : Version 2
Размер файла : 1,45 Гбайт
Продолжительность : 1 ч. 34 м.
Общий поток : 2198 Кбит/сек
Название фильма : Etot.nelovkiy.moment.2014.D.WEB-DLRip-AVC.By_Flash
Дата кодирования : UTC 2014-04-23 15:36:42
Программа кодирования : mkvmerge v5.8.0 ('No Sleep / Pillow') built on Sep 2 2012 15:37:04
Библиотека кодирования : libebml v1.2.3 + libmatroska v1.3.0
Видео
Идентификатор : 1
Формат : AVC
Формат/Информация : Advanced Video Codec
Профиль формата : High@L4.1
Параметр CABAC формата : Да
Параметр ReFrames формата : 10 кадров
Идентификатор кодека : V_MPEG4/ISO/AVC
Продолжительность : 1 ч. 34 м.
Битрейт : 1814 Кбит/сек
Ширина : 1024 пикселя
Высота : 426 пикселей
Соотношение сторон : 2,40:1
Режим частоты кадров : Постоянный
Частота кадров : 24,000 кадра/сек
Цветовое пространство : YUV
Субдискретизация насыщенности : 4:2:0
Битовая глубина : 8 бит
Тип развёртки : Прогрессивная
Бит/(Пиксели*Кадры) : 0.173
Размер потока : 1,17 Гбайт (81%)
Библиотека кодирования : x264 core 138 r2356 a1d3d17
Настройки программы : cabac=1 / ref=10 / deblock=1:-3:-2 / analyse=0x3:0x113 / me=umh / subme=10 / psy=1 / psy_rd=1.00:0.05 / mixed_ref=1 / me_range=48 / chroma_me=1 / trellis=2 / 8x8dct=1 / cqm=0 / deadzone=21,11 / fast_pskip=0 / chroma_qp_offset=-3 / threads=6 / lookahead_threads=1 / sliced_threads=0 / nr=0 / decimate=0 / interlaced=0 / bluray_compat=0 / constrained_intra=0 / bframes=10 / b_pyramid=2 / b_adapt=2 / b_bias=0 / direct=3 / weightb=1 / open_gop=0 / weightp=2 / keyint=240 / keyint_min=24 / scenecut=40 / intra_refresh=0 / rc_lookahead=40 / rc=2pass / mbtree=1 / bitrate=1814 / ratetol=1.0 / qcomp=0.60 / qpmin=0 / qpmax=69 / qpstep=4 / cplxblur=20.0 / qblur=0.5 / ip_ratio=1.40 / aq=1:1.00
Default : Да
Forced : Нет
Аудио
Идентификатор : 2
Формат : AC-3
Формат/Информация : Audio Coding 3
Расширение режима : CM (complete main)
Параметр Endianness формата : Big
Идентификатор кодека : A_AC3
Продолжительность : 1 ч. 34 м.
Вид битрейта : Постоянный
Битрейт : 384 Кбит/сек
Каналы : 6 каналов
Расположение каналов : Front: L C R, Side: L R, LFE
Частота : 48,0 КГц
Битовая глубина : 16 бит
Метод сжатия : С потерями
Размер потока : 260 Мбайт (17%)
Default : Да
Forced : Нет
Меню
00:00:00.000 : en:1
00:07:31.000 : en:2
00:12:33.000 : en:3
00:17:33.000 : en:4
00:22:37.000 : en:5
00:27:39.000 : en:6
00:32:39.000 : en:7
00:37:41.000 : en:8
00:42:42.000 : en: 9
00:47:44.000 : en:10
00:52:46.000 : en:11
00:57:48.000 : en:12
01:03:03.000 : en:13
01:08:04.000 : en:14
01:13:12.000 : en:15
01:18:21.000 : en:16
01:23:23.000 : en:17

Скриншот c названием фильма

Скриншоты

Скачать

Скачать торрент!

Как скачивать? · Что такое торрент? · Рейтинг и ограничения

Сайт не распространяет и не хранит электронные версии произведений, а лишь предоставляет доступ к создаваемому пользователями каталогу ссылок на торрент-файлы, которые содержат только списки хеш-сумм

[Профиль] [ЛС]
Показать сообщения:    
Ответить на тему

Текущее время: Сегодня 08:26

Часовой пояс: GMT + 4



Вы не можете начинать темы
Вы не можете отвечать на сообщения
Вы не можете редактировать свои сообщения
Вы не можете удалять свои сообщения
Вы не можете голосовать в опросах
Вы не можете прикреплять файлы к сообщениям
Вы не можете скачивать файлы