Грандиозное веселье / Отрываясь по полной 2 / Grand Masti / Masti 2 (Индра Кумар / Indra Kumar) [2013, Индия, Комедия, DVDRip] + Sub Rus

Ответить на тему
 
Автор Сообщение

user ®

Стаж: 12 лет

Сообщений: 15092

Пост Пост: #1 от 23-Апр-2014 15:15

[Цитировать]

Грандиозное веселье / Отрываясь по полной 2 / Grand Masti / Masti 2
Страна: Индия
Жанр: Комедия
Год выпуска: 2013
Продолжительность: 02:09:41
Перевод: Субтитры
Cубтитры: русские
Оригинальная аудиодорожка: хинди
Режиссер: Индра Кумар / Indra Kumar
В ролях: Вивек Оберой, Ретеш Дешмукх, Афтаб Шивдасани, Сонали Кулкарни, Манджари Фаднис, Каришма Танна, Марьям Закария, Бруна Абдулла, Кайнат Арора, Суреш Менон, Прадип Рават
Описание: Продолжение истории об Мите, Амаре и Преме, состоящих в браке, но не удовлетворённых в плане секса. В этот раз они собираются вместе на 25-летие своего колледжа и встречаются с тремя сексуальными красотками...
Доп. информация: Перевод субтитров - Baazigar (Спасибо!)
Сэмпл: http://multi-up.com/968881
Качество видео: DVDRip
Формат видео: AVI
Видео: XviD build 50, 720x304 (2.37:1), 29.970 fps, 1141 kbps avg
Аудио: AC3 Dolby Digital, 48 kHz, 3/2 (L,C,R,l,r) + LFE ch, 448.00 kbps avg
Формат субтитров: softsub (SRT)
Доп. информация о субтитрах: Автор: Baazigar

MediaInfo

General
Complete name : D:\Grandioznoe.veselje.2013.DVDRip.XviD\Grandioznoe.veselje.2013.DVDRip.XviD.avi
Format : AVI
Format/Info : Audio Video Interleave
File size : 1.45 GiB
Duration : 2h 9mn
Overall bit rate : 1 597 Kbps
Video
ID : 0
Format : MPEG-4 Visual
Format profile : AdvancedSimple@L5
Format settings, BVOP : Yes
Format settings, QPel : No
Format settings, GMC : No warppoints
Format settings, Matrix : Default (H.263)
Codec ID : XVID
Codec ID/Hint : XviD
Duration : 2h 9mn
Bit rate : 1 140 Kbps
Width : 720 pixels
Height : 304 pixels
Display aspect ratio : 2.500
Frame rate : 29.970 fps
Resolution : 24 bits
Colorimetry : 4:2:0
Scan type : Progressive
Bits/(Pixel*Frame) : 0.174
Stream size : 1.03 GiB (71%)
Writing library : XviD 1.2.1 (UTC 2008-12-04)
Audio
ID : 1
Format : AC-3
Format/Info : Audio Coding 3
Codec ID : 2000
Duration : 2h 9mn
Bit rate mode : Constant
Bit rate : 448 Kbps
Channel(s) : 6 channels
Channel positions : Front: L C R, Surround: L R, LFE
Sampling rate : 48.0 KHz
Stream size : 416 MiB (28%)
Alignment : Aligned on interleaves
Interleave, duration : 64 ms (1.92 video frames)
Interleave, preload duration : 192 ms
Title : VTS_02_1 T80 3_2ch 448Kbps DELAY 0ms

Скриншот c названием фильма

Скриншоты

Фрагмент субтитров

677
00:52:27,210 --> 00:52:28,382
Что это за веревка?
678
00:52:29,245 --> 00:52:31,247
Для сушки белья.
679
00:52:33,216 --> 00:52:35,127
Такая длинная!
680
00:52:46,329 --> 00:52:47,501
Выпустил газ!
681
00:52:47,797 --> 00:52:49,674
Что это?
682
00:52:50,667 --> 00:52:52,340
Это пестицида.
683
00:52:52,402 --> 00:52:56,578
Знаете, сколько насекомых,
в этих местах?
684
00:52:56,639 --> 00:52:57,709
Он прав!
685
00:52:58,775 --> 00:52:59,810
Может его они и атакуют!
686
00:53:03,680 --> 00:53:04,624
Зонтик!
687
00:53:05,315 --> 00:53:07,192
Зачем ты взяла зонтик?
688
00:53:07,250 --> 00:53:09,059
Я упаковал его с таким трудом!
689
00:53:09,118 --> 00:53:12,691
Как ты смог засунуть, столько больших вещей
в таком маленьком месте?
690
00:53:13,056 --> 00:53:14,501
Это искусство!
691
00:53:14,857 --> 00:53:16,564
Он очень большой мастер!
692
00:53:16,626 --> 00:53:18,401
Он не мастер,
он извращенец!
693
00:53:19,729 --> 00:53:22,175
О, Боже! Крыса!
694
00:53:23,466 --> 00:53:24,240
Крыса?
695
00:53:25,301 --> 00:53:30,216
Где-бы ты не увидела крысу,
всегда принимай её, как гостя.
696
00:53:30,273 --> 00:53:31,445
Но она мертвая!
697
00:53:32,308 --> 00:53:34,345
Если она входит
в неправильное место, она умирает.
698
00:53:34,410 --> 00:53:35,582
Выброси!
Скачать

Скачать торрент! Грандиозное веселье / Отрываясь по полной 2 / Grand Masti / Masti 2 (Индра Кумар / Indra Kumar) [2013, Индия, Комедия, DVDRip] + Sub Rus

Как скачивать? · Что такое торрент? · Рейтинг и ограничения

Сайт не распространяет и не хранит электронные версии произведений, а лишь предоставляет доступ к создаваемому пользователями каталогу ссылок на торрент-файлы, которые содержат только списки хеш-сумм

[Профиль] [ЛС]
Показать сообщения:    
Ответить на тему

Текущее время: Сегодня 13:02

Часовой пояс: GMT + 4



Вы не можете начинать темы
Вы не можете отвечать на сообщения
Вы не можете редактировать свои сообщения
Вы не можете удалять свои сообщения
Вы не можете голосовать в опросах
Вы не можете прикреплять файлы к сообщениям
Вы не можете скачивать файлы