11 часов / 11 A.M. (Хён Сок Ким / Hyun-seok Kim) [2013, Южная Корея, Фантастика, триллер, HDTVRip] DVO (Green Tea) + Original Korean

Ответить на тему
 
Автор Сообщение

user ®

Стаж: 11 лет

Сообщений: 15151

Пост Пост: #1 от 22-Апр-2014 18:15

[Цитировать]

11 часов / 11 A.M.
Страна: Южная Корея
Жанр: Фантастика, триллер
Год выпуска: 2013
Продолжительность: 01:38:56
Перевод: Любительский (двухголосый закадровый) Green Tea
Cубтитры: нет
Оригинальная аудиодорожка: корейский
Режиссер: Хён Сок Ким / Hyun-seok Kim
В ролях: Чжэ Ён Чон, Ок Пин Ким, Даниель Чхве
Описание: Гениальный физик и изобретатель Ву-Сок все силы отдаёт созданию машины времени, и, в первую очередь, это устройство ему нужно для того, чтобы вновь увидеться со своей погибшей женой. В процессе испытаний, Ву-Сок скользит во времени в следующий день и становится свидетелем того, как ровно в 11 утра гибнут его коллеги. Вернувшись в прошлое, Ву-Сок пытается предотвратить убийство, однако сталкивается с неумолимыми законами времени...

Качество видео: HDTVRip
Формат видео: AVI
Видео: FMP4 720x400 23.976fps 1469 Kbps
Аудио 1: Dolby AC3 44100Hz stereo 192kbps [Russian]
Аудио 2: Dolby AC3 48000Hz stereo 192kbps [Korean]

MediaInfo

General
Complete name : E:\Films\New\AM.11.00.2013.HDTVRip.avi
Format : AVI
Format/Info : Audio Video Interleave
Format profile : OpenDML
File size : 1.29 GiB
Duration : 1h 38mn
Overall bit rate : 1 872 Kbps
Writing application : Lavf51.12.1
Video
ID : 0
Format : MPEG-4 Visual
Format profile : Simple@L1
Format settings, BVOP : No
Format settings, QPel : No
Format settings, GMC : No warppoints
Format settings, Matrix : Default (H.263)
Codec ID : FMP4
Duration : 1h 38mn
Bit rate : 1 469 Kbps
Width : 720 pixels
Height : 400 pixels
Display aspect ratio : 16:9
Frame rate : 23.976 fps
Color space : YUV
Chroma subsampling : 4:2:0
Bit depth : 8 bits
Scan type : Progressive
Compression mode : Lossy
Bits/(Pixel*Frame) : 0.213
Stream size : 1.01 GiB (78%)
Writing library : Lavc51.40.4
Audio #1
ID : 1
Format : AC-3
Format/Info : Audio Coding 3
Mode extension : CM (complete main)
Format settings, Endianness : Big
Codec ID : 2000
Duration : 1h 38mn
Bit rate mode : Constant
Bit rate : 192 Kbps
Channel(s) : 2 channels
Channel positions : Front: L R
Sampling rate : 44.1 KHz
Bit depth : 16 bits
Compression mode : Lossy
Stream size : 136 MiB (10%)
Alignment : Aligned on interleaves
Interleave, duration : 35 ms (0.83 video frame)
Interleave, preload duration : 34 ms
Audio #2
ID : 2
Format : AC-3
Format/Info : Audio Coding 3
Mode extension : CM (complete main)
Format settings, Endianness : Big
Codec ID : 2000
Duration : 1h 38mn
Bit rate mode : Constant
Bit rate : 192 Kbps
Channel(s) : 2 channels
Channel positions : Front: L R
Sampling rate : 48.0 KHz
Bit depth : 16 bits
Compression mode : Lossy
Stream size : 136 MiB (10%)
Alignment : Aligned on interleaves
Interleave, duration : 32 ms (0.77 video frame)
Interleave, preload duration : 32 ms

Скриншоты

Скачать

Скачать торрент! 11 часов / 11 A.M. (Хён Сок Ким / Hyun-seok Kim) [2013, Южная Корея, Фантастика, триллер, HDTVRip] DVO (Green Tea) + Original Korean

Как скачивать? · Что такое торрент? · Рейтинг и ограничения

Сайт не распространяет и не хранит электронные версии произведений, а лишь предоставляет доступ к создаваемому пользователями каталогу ссылок на торрент-файлы, которые содержат только списки хеш-сумм

[Профиль] [ЛС]
Показать сообщения:    
Ответить на тему

Текущее время: Сегодня 18:13

Часовой пояс: GMT + 4



Вы не можете начинать темы
Вы не можете отвечать на сообщения
Вы не можете редактировать свои сообщения
Вы не можете удалять свои сообщения
Вы не можете голосовать в опросах
Вы не можете прикреплять файлы к сообщениям
Вы не можете скачивать файлы