Семейка Аддамс / The Addams Family (Барри Зонненфельд / Barry Sonnenfeld) [1992, США, фэнтези, комедия, семейный, BDRip 1080p] 2х MVO + DVO + 4х AVO + Sub Rus, Eng + Original Eng

Ответить на тему
 
Автор Сообщение

user ®

Стаж: 7 лет 7 месяцев

Сообщений: 20008

Пост Пост: #1 от 21-Апр-2014 22:10

[Цитировать]

Семейка Аддамс / The Addams Family
Страна: США
Жанр: фэнтези, комедия, семейный
Год выпуска: 1992
Продолжительность: 01:39:42
Перевод 1: Профессиональный (многоголосый закадровый) Неизвестный
Перевод 2: Профессиональный (многоголосый закадровый) СТС
Перевод 3: Профессиональный (двухголосый закадровый) НТВ+
Перевод 4: Авторский (одноголосый закадровый) А.Михалев
Перевод 5: Авторский (одноголосый закадровый) Ю.Сербин
Перевод 6: Авторский (одноголосый закадровый) В.Сонькин
Перевод 7: Авторский (одноголосый закадровый) С.Визгунов
Cубтитры: русские, английские
Оригинальная аудиодорожка: английский
Режиссер: Барри Зонненфельд / Barry Sonnenfeld
В ролях: Анджелика Хьюстон, Рауль Хулиа, Кристофер Ллойд, Элизабет Уилсон, Кристина Риччи, Джудит Мэлина, Дэн Хедайя, Карел Стрёйкен, Пол Бенедикт, Кристофер Харт...
Описание: Черная комедия о колоритной семейке, обитающей в не менее колоритном доме. Глава семьи, Гомес Аддамс — очень самоуверенный и довольно импульсивный тип, который четверть века тому назад страшно поругался со своим старшим братом Фестером, после чего тот пропал без вести. Все попытки отыскать его были безуспешными. Но вот, однажды на пороге фамильного особняка появляется некто, очень похожий на Фестера. Но состоится ли триумфальное возвращение в семью «блудного брата»?
Доп. информация:
Рип и дорожки №1, №3 и №4 были сделаны Anoobis'ом, №1 с выделенных голосов, №4 с чистого голоса,
дорожки №№ 2,5,6 подогнаны delo 2006. За 6 канальную озвучку НТВ+ спасибо xfiles
Сэмпл: http://yadi.sk/d/OHy-1_-HMjgev
Тип релиза: BDRip 1080p
Контейнер: MKV
Видео: MPEG-4 AVC , ~11600 kbps, 1920х1026, 23,976 fps (1.87:1)
Аудио 1: Russian: DTS, 5.1 (L,C,R,l,r) + LFE ch, 1509 kbps - неизвестный
Аудио 2: Russian: 48 kHz, AC3, 2.0 (L,R), ~192.00 kbps avg - СТС
Аудио 3: Russian: 48 kHz, AC3, 3/2 (L,C,R,l,r) + LFE ch, ~448.00 kbps avg - НТВ+
Аудио 4: Russian: DTS, 5.1 (L,C,R,l,r) + LFE ch, 1509 kbps - А.Михалев
Аудио 5: Russian: 48 kHz, AC3, 3/2 (L,C,R,l,r) + LFE ch, ~448.00 kbps avg - Ю.Сербин
Аудио 6: Russian: 48 kHz, AC3, 2.0 (L,R), ~192.00 kbps avg - В.Сонькин
Аудио 7: Russian: 48 kHz, AC3, 2.0 (L,R), ~192.00 kbps avg - С.Визгунов
Аудио 7: English: DTS, 5.1 (L,C,R,l,r) + LFE ch, 1509 kbps
Формат субтитров: softsub (SRT)

MediaInfo

F:\временная ЭКСКЛЮЗИВ!!!\AD Fe\The.Addams.Family.1991.mkv
General
Unique ID : 197777202522364714041509298973506356372 (0x94CA80F038D1DAB38210A2EF05954494)
Complete name : F:\временная ЭКСКЛЮЗИВ!!!\AD Fe\The.Addams.Family.1991.mkv
Format : Matroska
Format version : Version 4 / Version 2
File size : 12.3 GiB
Duration : 1h 39mn
Overall bit rate : 17.6 Mbps
Movie name : -=AN=-
Encoded date : UTC 2014-04-18 16:05:22
Writing application : mkvmerge v6.8.0 ('Theme for Great Cities') 64bit built on Mar 2 2014 21:34:26
Writing library : libebml v1.3.0 + libmatroska v1.4.1
Video #1
ID : 1
Format : AVC
Format/Info : Advanced Video Codec
Format profile : High@L4.1
Format settings, CABAC : Yes
Format settings, ReFrames : 4 frames
Codec ID : V_MPEG4/ISO/AVC
Duration : 1h 39mn
Bit rate : 11.6 Mbps
Width : 1 920 pixels
Height : 1 026 pixels
Display aspect ratio : 1.85:1
Frame rate mode : Constant
Frame rate : 23.976 fps
Color space : YUV
Chroma subsampling : 4:2:0
Bit depth : 8 bits
Scan type : Progressive
Bits/(Pixel*Frame) : 0.246
Stream size : 7.86 GiB (64%)
Title : Rip by -=AN=-
Writing library : x264 core 130 r2273 b3065e6
Encoding settings : cabac=1 / ref=4 / deblock=1:-3:-3 / analyse=0x3:0x112 / me=umh / subme=10 / psy=1 / psy_rd=1.00:0.15 / mixed_ref=1 / me_range=32 / chroma_me=1 / trellis=2 / 8x8dct=1 / cqm=0 / deadzone=21,11 / fast_pskip=0 / chroma_qp_offset=-3 / threads=12 / lookahead_threads=2 / sliced_threads=0 / nr=0 / decimate=0 / interlaced=0 / bluray_compat=0 / constrained_intra=0 / bframes=9 / b_pyramid=2 / b_adapt=2 / b_bias=0 / direct=3 / weightb=1 / open_gop=0 / weightp=2 / keyint=240 / keyint_min=23 / scenecut=40 / intra_refresh=0 / rc=2pass / mbtree=0 / bitrate=11642 / ratetol=1.0 / qcomp=0.70 / qpmin=0 / qpmax=69 / qpstep=4 / cplxblur=20.0 / qblur=0.5 / ip_ratio=1.40 / pb_ratio=1.30 / aq=1:1.00
Language : English
Default : Yes
Forced : No
Matrix coefficients : BT.709
Audio #2
ID : 2
Format : DTS
Format/Info : Digital Theater Systems
Mode : 16
Format settings, Endianness : Big
Codec ID : A_DTS
Duration : 1h 39mn
Bit rate mode : Constant
Bit rate : 1 510 Kbps
Channel(s) : 6 channels
Channel positions : Front: L C R, Side: L R, LFE
Sampling rate : 48.0 KHz
Bit depth : 24 bits
Compression mode : Lossy
Stream size : 1.05 GiB (9%)
Title : DTS MVO R5
Language : Russian
Default : Yes
Forced : No
Audio #3
ID : 3
Format : AC-3
Format/Info : Audio Coding 3
Mode extension : CM (complete main)
Format settings, Endianness : Big
Codec ID : A_AC3
Duration : 1h 39mn
Bit rate mode : Constant
Bit rate : 192 Kbps
Channel(s) : 2 channels
Channel positions : Front: L R
Sampling rate : 48.0 KHz
Bit depth : 16 bits
Compression mode : Lossy
Stream size : 137 MiB (1%)
Title : AC3 MVO CTC
Language : Russian
Default : No
Forced : No
Audio #4
ID : 4
Format : AC-3
Format/Info : Audio Coding 3
Mode extension : CM (complete main)
Format settings, Endianness : Big
Codec ID : A_AC3
Duration : 1h 39mn
Bit rate mode : Constant
Bit rate : 448 Kbps
Channel(s) : 6 channels
Channel positions : Front: L C R, Side: L R, LFE
Sampling rate : 48.0 KHz
Bit depth : 16 bits
Compression mode : Lossy
Stream size : 319 MiB (3%)
Title : DVO-НТВ+
Language : Russian
Default : No
Forced : No
Audio #5
ID : 5
Format : DTS
Format/Info : Digital Theater Systems
Mode : 16
Format settings, Endianness : Big
Codec ID : A_DTS
Duration : 1h 39mn
Bit rate mode : Constant
Bit rate : 1 510 Kbps
Channel(s) : 6 channels
Channel positions : Front: L C R, Side: L R, LFE
Sampling rate : 48.0 KHz
Bit depth : 24 bits
Compression mode : Lossy
Stream size : 1.05 GiB (9%)
Title : DTS Mihalev
Language : Russian
Default : No
Forced : No
Audio #6
ID : 6
Format : AC-3
Format/Info : Audio Coding 3
Mode extension : CM (complete main)
Format settings, Endianness : Big
Codec ID : A_AC3
Duration : 1h 39mn
Bit rate mode : Constant
Bit rate : 448 Kbps
Channel(s) : 6 channels
Channel positions : Front: L C R, Side: L R, LFE
Sampling rate : 48.0 KHz
Bit depth : 16 bits
Compression mode : Lossy
Stream size : 319 MiB (3%)
Title : AC3 Serbin
Language : Russian
Default : No
Forced : No
Audio #7
ID : 7
Format : AC-3
Format/Info : Audio Coding 3
Mode extension : CM (complete main)
Format settings, Endianness : Big
Codec ID : A_AC3
Duration : 1h 39mn
Bit rate mode : Constant
Bit rate : 192 Kbps
Channel(s) : 2 channels
Channel positions : Front: L R
Sampling rate : 48.0 KHz
Bit depth : 16 bits
Compression mode : Lossy
Stream size : 137 MiB (1%)
Title : AC3 Sonkin
Language : Russian
Default : No
Forced : No
Audio #8
ID : 8
Format : AC-3
Format/Info : Audio Coding 3
Mode extension : CM (complete main)
Format settings, Endianness : Big
Codec ID : A_AC3
Duration : 1h 39mn
Bit rate mode : Constant
Bit rate : 192 Kbps
Channel(s) : 2 channels
Channel positions : Front: L R
Sampling rate : 48.0 KHz
Bit depth : 16 bits
Compression mode : Lossy
Stream size : 137 MiB (1%)
Title : С.Визгунов
Language : Russian
Default : No
Forced : No
Audio #9
ID : 9
Format : DTS
Format/Info : Digital Theater Systems
Mode : 16
Format settings, Endianness : Big
Codec ID : A_DTS
Duration : 1h 39mn
Bit rate mode : Constant
Bit rate : 1 509 Kbps
Channel(s) : 6 channels
Channel positions : Front: L C R, Side: L R, LFE
Sampling rate : 48.0 KHz
Bit depth : 24 bits
Compression mode : Lossy
Stream size : 1.05 GiB (9%)
Title : DTS Eng
Language : English
Default : No
Forced : No
Text #10
ID : 10
Format : UTF-8
Codec ID : S_TEXT/UTF8
Codec ID/Info : UTF-8 Plain Text
Language : Russian
Default : No
Forced : No
Text #11
ID : 11
Format : UTF-8
Codec ID : S_TEXT/UTF8
Codec ID/Info : UTF-8 Plain Text
Language : English
Default : No
Forced : No

Скриншоты

Скачать

Скачать торрент!

Как скачивать? · Что такое торрент? · Рейтинг и ограничения

Сайт не распространяет и не хранит электронные версии произведений, а лишь предоставляет доступ к создаваемому пользователями каталогу ссылок на торрент-файлы, которые содержат только списки хеш-сумм

[Профиль] [ЛС]
Показать сообщения:    
Ответить на тему

Текущее время: Сегодня 12:38

Часовой пояс: GMT + 4



Вы не можете начинать темы
Вы не можете отвечать на сообщения
Вы не можете редактировать свои сообщения
Вы не можете удалять свои сообщения
Вы не можете голосовать в опросах
Вы не можете прикреплять файлы к сообщениям
Вы не можете скачивать файлы