Лучшие друзья и ребенок / L!fe Happens (Кэт Койро / Kat Coiro) [2011, США, Канада, комедия, BDRip 720p] MVO (Лицензия) + Sub Eng + Original Eng

Ответить на тему
 
Автор Сообщение

user ®

Стаж: 7 лет 7 месяцев

Сообщений: 20008

Пост Пост: #1 от 21-Апр-2014 22:10

[Цитировать]

Лучшие друзья и ребенок / L!fe Happens
Страна: США, Канада
Жанр: комедия
Год выпуска: 2011
Продолжительность: 01:41:00
Перевод: Профессиональный (многоголосый закадровый) лицензия
Cубтитры: английские
Оригинальная аудиодорожка: английский
Режиссер: Кэт Койро / Kat Coiro
В ролях: Кристен Риттер, Кейт Босворт, Рэйчел Билсон, Джефф Сталтс, Джастин Керк, Андреа Сэвадж, Кристен Джонстон, Риз Койро, Сеймур Кассель, Луис Сильверс, Джейсон Биггс, Коннор Росс, Колин Эгглсфилд, Айвен Шоу, Дженни Моллен, Эбби Браммелл, Маргарит Моро, Кэти Морган, Ник Новицки
Описание: Ким, Дина и Лора делят квартиру и весело проводят время. Молодость – пора экспериментов, поэтому Дина и Ким частенько приводят домой случайных молодых людей, а Лоре, которая ведет целомудренную жизнь, остается только мириться с привычками ее подруг. Тем не менее, все идет весьма неплохо, пока в один прекрасный момент не оказывается, что Ким с Диной обе привели домой парней, а средств контрацепции для них обеих не хватает.
Ким решает рискнуть, и в результате страстной ночи с новым знакомым сталкивается с перспективой стать матерью-одиночкой. Отец ребенка не выказывает никакого желания принимать участие в жизни Ким, и спустя год она в одиночку пытается растить Макса – своего сына. Хотя, если учесть, что подруги все еще живут вместе, Ким нельзя назвать такой уж одинокой: Дине и Лоре так или иначе тоже приходится примерить роли молодых матерей. Будет ли опыт незапланированного материнства положительным, найдет ли Ким отца своему ребенку и сохранят ли девушки дружеские отношения? Что ж, время покажет.
Доп. информация: Сохранены оригинальные чаптеры как на Blu-Ray
Сэмпл: http://yadi.sk/d/5bQK_TFhMmxCr
Тип релиза: BDRip 720p [HDWing]
Контейнер: MKV
Видео: MPEG-4 AVC, 1280x534 (2.40:1), 5470 kbps, 23,976 fps, 0,344 bpp
Аудио: Russian: 48 kHz, AC3 Dolby Digital, 3/2 (L,C,R,l,r) LFE ch, ~384 kbps
Аудио 2: English: DTS, 1510 kb/s (6 ch)

MediaInfo

Общее
L!fe.Happens.2011.Blu.Ray.720p. СПАМ
Формат : Matroska
Версия формата : Version 4 / Version 2
Размер файла : 5,18 Гбайт
Продолжительность : 1 ч. 41 м.
Общий поток : 7345 Кбит/сек
Название фильма : Release Group СПАМ
Дата кодирования : UTC 2014-04-19 13:20:50
Программа кодирования : mkvmerge v6.8.0 ('Theme for Great Cities') 64bit built on Mar 2 2014 21:34:26
Библиотека кодирования : libebml v1.3.0 libmatroska v1.4.1
Видео
Идентификатор : 1
Формат : AVC
Формат/Информация : Advanced Video Codec
Профиль формата : High@L4.1
Параметр CABAC формата : Да
Параметр ReFrames формата : 12 кадров
Идентификатор кодека : V_MPEG4/ISO/AVC
Продолжительность : 1 ч. 41 м.
Битрейт : 5470 Кбит/сек
Ширина : 1280 пикселей
Высота : 534 пикселя
Соотношение сторон : 2,40:1
Режим частоты кадров : Постоянный
Частота кадров : 23,976 кадра/сек
Цветовое пространство : YUV
Субдискретизация насыщенности : 4:2:0
Битовая глубина : 8 бит
Тип развёртки : Прогрессивная
Бит/(Пиксели*Кадры) : 0.334
Размер потока : 3,74 Гбайт (72%)
Заголовок : Release Group СПАМ
Библиотека кодирования : x264 core 125 r2208 d9d2288
Настройки программы : cabac=1 / ref=12 / deblock=1:-3:-3 / analyse=0x3:0x133 / me=umh / subme=10 / psy=1 / psy_rd=1.00:0.00 / mixed_ref=1 / me_range=32 / chroma_me=1 / trellis=2 / 8x8dct=1 / cqm=0 / deadzone=21,11 / fast_pskip=1 / chroma_qp_offset=-2 / threads=12 / lookahead_threads=2 / sliced_threads=0 / nr=0 / decimate=0 / interlaced=0 / bluray_compat=0 / constrained_intra=0 / bframes=7 / b_pyramid=2 / b_adapt=2 / b_bias=0 / direct=3 / weightb=1 / open_gop=0 / weightp=2 / keyint=250 / keyint_min=23 / scenecut=40 / intra_refresh=0 / rc_lookahead=80 / rc=2pass / mbtree=1 / bitrate=5470 / ratetol=1.0 / qcomp=0.60 / qpmin=0 / qpmax=69 / qpstep=4 / cplxblur=20.0 / qblur=0.5 / vbv_maxrate=30000 / vbv_bufsize=30000 / nal_hrd=none / ip_ratio=1.50 / aq=1:1.00
Язык : English
Default : Да
Forced : Нет
Аудио #1
Идентификатор : 2
Формат : AC-3
Формат/Информация : Audio Coding 3
Расширение режима : CM (complete main)
Параметр Endianness формата : Big
Идентификатор кодека : A_AC3
Продолжительность : 1 ч. 41 м.
Вид битрейта : Постоянный
Битрейт : 384 Кбит/сек
Каналы : 6 каналов
Расположение каналов : Front: L C R, Side: L R, LFE
Частота : 48,0 КГц
Битовая глубина : 16 бит
Метод сжатия : С потерями
Размер потока : 277 Мбайт (5%)
Заголовок : Лицензия
Язык : Russian
Default : Да
Forced : Да
Аудио #2
Идентификатор : 3
Формат : DTS
Формат/Информация : Digital Theater Systems
Режим : 16
Параметр Endianness формата : Big
Идентификатор кодека : A_DTS
Продолжительность : 1 ч. 41 м.
Вид битрейта : Постоянный
Битрейт : 1509 Кбит/сек
Каналы : 6 каналов
Расположение каналов : Front: L C R, Side: L R, LFE
Частота : 48,0 КГц
Битовая глубина : 24 бит
Метод сжатия : С потерями
Размер потока : 1,06 Гбайт (21%)
Язык : English
Default : Нет
Forced : Нет
Текст
Идентификатор : 4
Формат : UTF-8
Идентификатор кодека : S_TEXT/UTF8
Идентификатор кодека/Информация : UTF-8 Plain Text
Заголовок : Release Group СПАМ
Язык : English
Default : Нет
Forced : Нет
Меню
00:00:00.000 : en:00:00:00.000
00:04:23.221 : en:00:04:23.221
00:09:46.211 : en:00:09:46.211
00:15:27.844 : en:00:15:27.844
00:20:14.547 : en:00:20:14.547
00:25:11.051 : en:00:25:11.051
00:31:22.005 : en:00:31:22.005
00:34:50.088 : en:00:34:50.088
00:40:59.791 : en:00:40:59.791
00:45:41.238 : en:00:45:41.238
00:52:48.332 : en:00:52:48.332
00:56:36.643 : en:00:56:36.643
01:00:27.916 : en:01:00:27.916
01:05:40.478 : en:01:05:40.478
01:09:41.552 : en:01:09:41.552
01:15:27.606 : en:01:15:27.606
01:19:45.447 : en:01:19:45.447
01:26:27.057 : en:01:26:27.057
01:29:09.803 : en:01:29:09.803
01:36:49.012 : en:01:36:49.012

Скриншоты

Скачать

Скачать торрент!

Как скачивать? · Что такое торрент? · Рейтинг и ограничения

Сайт не распространяет и не хранит электронные версии произведений, а лишь предоставляет доступ к создаваемому пользователями каталогу ссылок на торрент-файлы, которые содержат только списки хеш-сумм

[Профиль] [ЛС]
Показать сообщения:    
Ответить на тему

Текущее время: Сегодня 16:44

Часовой пояс: GMT + 4



Вы не можете начинать темы
Вы не можете отвечать на сообщения
Вы не можете редактировать свои сообщения
Вы не можете удалять свои сообщения
Вы не можете голосовать в опросах
Вы не можете прикреплять файлы к сообщениям
Вы не можете скачивать файлы