Царь горы / King of the Hill (Стивен Содерберг / Steven Soderbergh) [1993, США, драма, BDRip 1080p] [Criterion #698] DVO + Sub Rus, Eng + Original Eng

Ответить на тему
 
Автор Сообщение

user ®

Стаж: 7 лет 7 месяцев

Сообщений: 20008

Пост Пост: #1 от 21-Апр-2014 22:10

[Цитировать]

Царь горы / King of the Hill- Страна: США
Студия: Bona Fide Productions, Wildwood Enterprises
Жанр: драма
Год выпуска: 1993
Продолжительность: 01:43:23-Перевод: профессиональный (двухголосый закадровый)
Cубтитры: русские, английские
Оригинальная аудиодорожка: английский-Режиссер: Стивен Содерберг / Steven Soderbergh
В ролях: Джесси Брэдфорд, Йерун Краббе, Лиза Айкхорн, Карен Аллен, Сполдинг Грэй, Элизабет МакГоверн, Камерон Бойд, Эдриен Броуди, Джо Крест, Кристин Гриффит, Кэтрин Хейгл, Джон Дарбин (I), Джесс Зайглер, Римак Рамсей, Джозеф Патрик Мойнихэн, Мак Такано, Крэйг Хоуксли, Гарри Говерник, Рон Йеркса, Эмбер Бенсон
Описание: Драма о юном парне по имени Арон, который в разгар Великой депрессии оказывается без родных - брата отправляют к дяде, мать оказывается в клинике, а отец вынужден уехать на поиски клиентов (единственная работа, которую он может найти, - путешествующий коммивояжер). Арон остается один в квартире доходного дома и просто пытается выжить, надеясь на лучшее.-Сэмпл: http://www.sendspace.com/file/h43573-Тип релиза: BDRip 1080p (WiKi)
Контейнер: MKV
Видео: MPEG-4 AVC / 15150 kbps / 1920 x 816 / 23.976 fps / 2.35:1
Аудио 1: Russian / AC3 2.0 / 48 kHz / 192 kbps (DVO)
Аудио 2: English / DTS 5.1 / 48 kHz / 1509 kbps / 24 bit
Формат субтитров: softsub (SRT)
Навигация по главам: есть- -

MediaInfo

Общее
Уникальный идентификатор                 : 193450902993498539758981303726449326965 (0x918949E7386A750C948B6E9C36BF7B75)
Полное имя                               : H:\Demux\King of the Hill\King of the Hill.1993.Criterion Collection.BD-Rip.1080p-WiKi.mkv
Формат                                   : Matroska
Версия формата                           : Version 4 / Version 2
Размер файла                             : 12,2 Гбайт
Продолжительность                        : 1 ч. 43 м.
Общий поток                              : 16,8 Мбит/сек
Дата кодирования                         : UTC 2014-04-20 14:13:13
Программа кодирования                    : mkvmerge v6.6.0 ('The Edge Of The In Between') built on Dec  1 2013 17:55:00
Библиотека кодирования                   : libebml v1.3.0 + libmatroska v1.4.1
Видео
Идентификатор                            : 1
Формат                                   : AVC
Формат/Информация                        : Advanced Video Codec
Профиль формата                          : High@L4.1
Параметр CABAC формата                   : Да
Параметр ReFrames формата                : 5 кадров
Идентификатор кодека                     : V_MPEG4/ISO/AVC
Продолжительность                        : 1 ч. 43 м.
Битрейт                                  : 15,1 Мбит/сек
Ширина                                   : 1920 пикселей
Высота                                   : 816 пикселей
Соотношение сторон                       : 2,35:1
Режим частоты кадров                     : Постоянный
Частота кадров                           : 23,976 кадра/сек
Цветовое пространство                    : YUV
Субдискретизация насыщенности            : 4:2:0
Битовая глубина                          : 8 бит
Тип развёртки                            : Прогрессивная
Бит/(Пиксели*Кадры)                      : 0.403
Размер потока                            : 10,7 Гбайт (88%)
Заголовок                                : King of the Hill
Библиотека кодирования                   : x264 core 130 r2273 b3065e6
Настройки программы                      : cabac=1 / ref=5 / deblock=1:-3:-3 / analyse=0x3:0x113 / me=umh / subme=11 / psy=1 / psy_rd=0.95:0.15 / mixed_ref=1 / me_range=32 / chroma_me=1 / trellis=2 / 8x8dct=1 / cqm=0 / deadzone=21,11 / fast_pskip=0 / chroma_qp_offset=-5 / threads=12 / lookahead_threads=2 / sliced_threads=0 / nr=0 / decimate=0 / interlaced=0 / bluray_compat=0 / constrained_intra=0 / bframes=8 / b_pyramid=2 / b_adapt=2 / b_bias=0 / direct=3 / weightb=1 / open_gop=0 / weightp=2 / keyint=250 / keyint_min=23 / scenecut=40 / intra_refresh=0 / rc_lookahead=70 / rc=2pass / mbtree=1 / bitrate=15150 / ratetol=1.0 / qcomp=0.60 / qpmin=0 / qpmax=69 / qpstep=4 / cplxblur=20.0 / qblur=0.5 / ip_ratio=1.40 / aq=1:0.95
Язык                                     : English
Default                                  : Да
Forced                                   : Нет
Аудио #1
Идентификатор                            : 2
Формат                                   : AC-3
Формат/Информация                        : Audio Coding 3
Расширение режима                        : CM (complete main)
Параметр Endianness формата              : Big
Идентификатор кодека                     : A_AC3
Продолжительность                        : 1 ч. 43 м.
Вид битрейта                             : Постоянный
Битрейт                                  : 192 Кбит/сек
Каналы                                   : 2 канала
Расположение каналов                     : Front: L R
Частота                                  : 48,0 КГц
Битовая глубина                          : 16 бит
Метод сжатия                             : С потерями
Размер потока                            : 142 Мбайт (1%)
Заголовок                                : DVO [AC3 2.0 @ 192 kbps]
Язык                                     : Russian
Default                                  : Да
Forced                                   : Нет
Аудио #2
Идентификатор                            : 3
Формат                                   : DTS
Формат/Информация                        : Digital Theater Systems
Режим                                    : 16
Параметр Endianness формата              : Big
Идентификатор кодека                     : A_DTS
Продолжительность                        : 1 ч. 43 м.
Вид битрейта                             : Постоянный
Битрейт                                  : 1509 Кбит/сек
Каналы                                   : 6 каналов
Расположение каналов                     : Front: L C R, Side: L R, LFE
Частота                                  : 48,0 КГц
Битовая глубина                          : 24 бит
Метод сжатия                             : С потерями
Размер потока                            : 1,09 Гбайт (9%)
Заголовок                                : [DTS 5.1 @ 1509 kbps]
Язык                                     : English
Default                                  : Нет
Forced                                   : Нет
Текст #1
Идентификатор                            : 4
Формат                                   : UTF-8
Идентификатор кодека                     : S_TEXT/UTF8
Идентификатор кодека/Информация          : UTF-8 Plain Text
Язык                                     : Russian
Default                                  : Нет
Forced                                   : Нет
Текст #2
Идентификатор                            : 5
Формат                                   : UTF-8
Идентификатор кодека                     : S_TEXT/UTF8
Идентификатор кодека/Информация          : UTF-8 Plain Text
Язык                                     : English
Default                                  : Нет
Forced                                   : Нет
Меню
00:00:00.000                             : en:Charles Lindbergh: American Hero
00:04:42.449                             : en:Lessons For Sullivan
00:09:04.836                             : en:Sacrifices
00:14:58.689                             : en:"True Or False?"
00:16:26.569                             : en:Marbles And Canaries
00:22:15.793                             : en:Opportunities
00:26:35.594                             : en:A Concerned Teacher
00:29:51.790                             : en:Mom's Illness
00:33:41.061                             : en:A Bad Day Of Caddying
00:35:49.939                             : en:Ella
00:39:52.557                             : en:Dinner With Dad
00:42:37.138                             : en:First-Time Driver
00:46:54.687                             : en:Dad's New Job
00:51:13.654                             : en:Necessary Resourcefulness
00:56:06.947                             : en:Graduation
01:04:50.637                             : en:Billy's Party
01:09:28.539                             : en:Eviction Notice
01:16:54.151                             : en:Mr. Mungo
01:23:37.429                             : en:Darkest Days
01:28:51.910                             : en:Reunited
01:34:40.675                             : en:Family

Скриншоты


Доп. информация

* В русских субтитрах текст двухголосой озвучки с редкими исправлениями.
-
Скачать

Скачать торрент!

Как скачивать? · Что такое торрент? · Рейтинг и ограничения

Сайт не распространяет и не хранит электронные версии произведений, а лишь предоставляет доступ к создаваемому пользователями каталогу ссылок на торрент-файлы, которые содержат только списки хеш-сумм

[Профиль] [ЛС]
Показать сообщения:    
Ответить на тему

Текущее время: Сегодня 04:18

Часовой пояс: GMT + 4



Вы не можете начинать темы
Вы не можете отвечать на сообщения
Вы не можете редактировать свои сообщения
Вы не можете удалять свои сообщения
Вы не можете голосовать в опросах
Вы не можете прикреплять файлы к сообщениям
Вы не можете скачивать файлы