Костер тщеславий / The Bonfire of the Vanities (Брайан Де Пальма / Brian De Palma) [1990, США, драма, комедия, BDRip 720p] Dub + AVO (В.Горчаков) + AVO (Ю.Живов)

Ответить на тему
 
Автор Сообщение

user ®

Стаж: 7 лет 7 месяцев

Сообщений: 20008

Пост Пост: #1 от 21-Апр-2014 22:10

[Цитировать]

Костер тщеславий / The Bonfire of the Vanities
Страна: США
Студия: Warner Bros
Жанр: драма, комедия
Год выпуска: 1990
Продолжительность: 02:05:24
Перевод 1: Профессиональный (дублированный)
Перевод 2: Авторский (одноголосый закадровый) В.Горчаков
Перевод 3: Авторский (одноголосый закадровый) А. Михалев
Cубтитры: нет
Оригинальная аудиодорожка: нет
Режиссер: Брайан Де Пальма / Brian De Palma
В ролях: Том Хэнкс, Брюс Уиллис, Мелани Гриффит, Ким Кэтролл, Сол Рубинек, Морган Фриман, Джон Хэнкок, Кевин Данн, Клифтон Джеймс, Луис Гьямбалво
Описание: Шерман Маккой был этаким «центром Вселенной» с Уолл-Стрит. И все в его жизни было правильно и надлежащим образом. У него была замечательная карьера, замечательный дом, замечательная жена. Только однажды ночью, сидя в хорошем автомобиле, он сделал «не тот» поворот, в «не том» месте, с «не той» женщиной. И с тех пор у него все пошло не так.
Сэмпл: http://multi-up.com/968272
Тип релиза: BDRip 720p
Контейнер: MKV
Видео: AVC, H.264 1280x720, (16:9), 7900 Кбит/сек, 23,976 кадра/сек, 0.358 Бит/(Пиксели*Кадры)
Аудио: Русский, AC-3, 192 Кбит/сек, 2 канала, 48,0 КГц, 192 Кбит/сек
Аудио 2: Русский, AC-3, 192 Кбит/сек, 2 канала, 48,0 КГц, 192 Кбит/сек
Аудио 3: Русский, AC-3, 192 Кбит/сек, 2 канала, 48,0 КГц, 192 Кбит/сек

MediaInfo

Общее
Уникальный идентификатор : 270585420813284558469359505631954875902 (0xCB90DB4009BB7C2475486EFAFE6035FE)
Полное имя : Костер тщеславий.BDrip720p.mkv
Формат : Matroska
Версия формата : Version 2
Размер файла : 7,43 Гбайт
Продолжительность : 2 ч. 5 м.
Общий поток : 8481 Кбит/сек
Программа кодирования : XviD4PSP 6.0 / 54.29.105
Библиотека кодирования : XviD4PSP 6.0 / 54.29.105
Видео
Идентификатор : 1
Формат : AVC
Формат/Информация : Advanced Video Codec
Профиль формата : High@L4.1
Параметр CABAC формата : Да
Параметр ReFrames формата : 5 кадров
Идентификатор кодека : V_MPEG4/ISO/AVC
Продолжительность : 2 ч. 5 м.
Битрейт : 7900 Кбит/сек
Ширина : 1280 пикселей
Высота : 720 пикселей
Соотношение сторон : 16:9
Режим частоты кадров : Постоянный
Частота кадров : 23,976 кадра/сек
Цветовое пространство : YUV
Субдискретизация насыщенности : 4:2:0
Битовая глубина : 8 бит
Тип развёртки : Прогрессивная
Бит/(Пиксели*Кадры) : 0.358
Размер потока : 6,78 Гбайт (91%)
Библиотека кодирования : x264 core 128 r2216M 198a7ea
Настройки программы : cabac=1 / ref=6 / deblock=1:-1:-1 / analyse=0x3:0x133 / me=umh / subme=10 / psy=1 / psy_rd=1.00:0.15 / mixed_ref=1 / me_range=32 / chroma_me=1 / trellis=2 / 8x8dct=1 / cqm=0 / deadzone=21,11 / fast_pskip=1 / chroma_qp_offset=-3 / threads=4 / lookahead_threads=1 / sliced_threads=0 / nr=0 / decimate=1 / interlaced=0 / bluray_compat=0 / constrained_intra=0 / bframes=6 / b_pyramid=1 / b_adapt=2 / b_bias=0 / direct=3 / weightb=1 / open_gop=0 / weightp=2 / keyint=230 / keyint_min=23 / scenecut=40 / intra_refresh=0 / rc_lookahead=60 / rc=2pass / mbtree=1 / bitrate=7900 / ratetol=1.0 / qcomp=0.60 / qpmin=10 / qpmax=51 / qpstep=4 / cplxblur=20.0 / qblur=0.5 / ip_ratio=1.40 / aq=1:1.00
Default : Да
Forced : Нет
Аудио #1
Идентификатор : 2
Формат : AC-3
Формат/Информация : Audio Coding 3
Расширение режима : CM (complete main)
Параметр Endianness формата : Big
Идентификатор кодека : A_AC3
Продолжительность : 2 ч. 5 м.
Вид битрейта : Постоянный
Битрейт : 192 Кбит/сек
Каналы : 2 канала
Расположение каналов : Front: L R
Частота : 48,0 КГц
Битовая глубина : 16 бит
Метод сжатия : С потерями
Задержка видео : 32 мс.
Размер потока : 172 Мбайт (2%)
Язык : Russian
Default : Да
Forced : Нет
Аудио #2
Идентификатор : 3
Формат : AC-3
Формат/Информация : Audio Coding 3
Расширение режима : CM (complete main)
Параметр Endianness формата : Big
Идентификатор кодека : A_AC3
Продолжительность : 2 ч. 5 м.
Вид битрейта : Постоянный
Битрейт : 192 Кбит/сек
Каналы : 2 канала
Расположение каналов : Front: L R
Частота : 48,0 КГц
Битовая глубина : 16 бит
Метод сжатия : С потерями
Задержка видео : 32 мс.
Размер потока : 172 Мбайт (2%)
Язык : Russian
Default : Да
Forced : Нет
Аудио #3
Идентификатор : 4
Формат : AC-3
Формат/Информация : Audio Coding 3
Расширение режима : CM (complete main)
Параметр Endianness формата : Big
Идентификатор кодека : A_AC3
Продолжительность : 2 ч. 5 м.
Вид битрейта : Постоянный
Битрейт : 192 Кбит/сек
Каналы : 2 канала
Расположение каналов : Front: L R
Частота : 48,0 КГц
Битовая глубина : 16 бит
Метод сжатия : С потерями
Задержка видео : 32 мс.
Размер потока : 172 Мбайт (2%)
Язык : Russian
Default : Да
Forced : Нет

Скриншоты

Скачать

Скачать торрент!

Как скачивать? · Что такое торрент? · Рейтинг и ограничения

Сайт не распространяет и не хранит электронные версии произведений, а лишь предоставляет доступ к создаваемому пользователями каталогу ссылок на торрент-файлы, которые содержат только списки хеш-сумм

[Профиль] [ЛС]
Показать сообщения:    
Ответить на тему

Текущее время: Сегодня 04:11

Часовой пояс: GMT + 4



Вы не можете начинать темы
Вы не можете отвечать на сообщения
Вы не можете редактировать свои сообщения
Вы не можете удалять свои сообщения
Вы не можете голосовать в опросах
Вы не можете прикреплять файлы к сообщениям
Вы не можете скачивать файлы