Брюс Ли.Человек и Миф / Bruce Lee. The Man the Myth (Брюс Лай / Bruce Li) [1978, Гонконг, Боевые искусства, VHSRip] VO

Ответить на тему
 
Автор Сообщение

user ®

Стаж: 11 лет

Сообщений: 15151

Пост Пост: #1 от 21-Апр-2014 01:10

[Цитировать]

Брюс Ли.Человек и Миф / Bruce Lee.The Man the Myth
Страна: Гонконг
Жанр: Боевые искусства
Год выпуска: 1978
Продолжительность: 01:30:38
Перевод: Одноголосый закадровый
Cубтитры: нет
Режиссер: Брюс Лай/Bruce Li
В ролях: Брюс Лай/Bruce Li
Описание: Художественный фильм снятый о жизни и смерти легендарного актера и человека Брюса Ли
Доп. информация: Рип с кассеты из домашней коллекции(могу раздавать с 9:00-21:00 по московскому времени)
Качество видео: VHSRip
Формат видео: AVI
Видео: MPEG4 Video (H264) 720x576 (4:3) 25fps
Аудио: MP3 44100Hz stereo 128kbps

MediaInfo

General
Complete name : H:\555\Брюс Ли.Человек и Миф.avi
Format : AVI
Format/Info : Audio Video Interleave
Format profile : OpenDML
File size : 2.88 GiB
Duration : 1h 30mn
Overall bit rate : 4 557 Kbps
Video
ID : 0
Format : AVC
Format/Info : Advanced Video Codec
Format profile : Main@L3.0
Format settings, CABAC : Yes
Format settings, ReFrames : 1 frame
Codec ID : X264
Codec ID/Info : XiWave GNU GPL x264 MPEG-4
Duration : 1h 30mn
Bit rate : 4 291 Kbps
Width : 720 pixels
Height : 576 pixels
Display aspect ratio : 4:3
Frame rate : 25.000 fps
Standard : PAL
Color space : YUV
Chroma subsampling : 4:2:0
Bit depth : 8 bits
Scan type : Progressive
Bits/(Pixel*Frame) : 0.414
Stream size : 2.72 GiB (94%)
Audio
ID : 1
Format : AC-3
Format/Info : Audio Coding 3
Mode extension : CM (complete main)
Format settings, Endianness : Big
Codec ID : 2000
Duration : 1h 30mn
Bit rate mode : Constant
Bit rate : 256 Kbps
Channel count : 2 channels
Channel positions : Front: L R
Sampling rate : 48.0 KHz
Bit depth : 16 bits
Compression mode : Lossy
Delay relative to video : 1ms
Stream size : 166 MiB (6%)
Alignment : Split accross interleaves
Interleave, duration : 56 ms (1.41 video frame)
Interleave, preload duration : 255 ms

Скриншоты

Скачать

Скачать торрент! Брюс Ли.Человек и Миф / Bruce Lee. The Man the Myth (Брюс Лай / Bruce Li) [1978, Гонконг, Боевые искусства, VHSRip] VO

Как скачивать? · Что такое торрент? · Рейтинг и ограничения

Сайт не распространяет и не хранит электронные версии произведений, а лишь предоставляет доступ к создаваемому пользователями каталогу ссылок на торрент-файлы, которые содержат только списки хеш-сумм

[Профиль] [ЛС]
Показать сообщения:    
Ответить на тему

Текущее время: Сегодня 19:10

Часовой пояс: GMT + 4



Вы не можете начинать темы
Вы не можете отвечать на сообщения
Вы не можете редактировать свои сообщения
Вы не можете удалять свои сообщения
Вы не можете голосовать в опросах
Вы не можете прикреплять файлы к сообщениям
Вы не можете скачивать файлы