Все в семье / Hua fei man cheng chun (Чжу Му / Chu Mu) [1975, Гонконг, драма, комедия, DVDRip] VO

Ответить на тему
 
Автор Сообщение

user ®

Стаж: 11 лет

Сообщений: 15151

Пост Пост: #1 от 21-Апр-2014 01:10

[Цитировать]

Все в семье / Hua fei man cheng chun
Год выпуска: 1975
Страна: Гонконг
Жанр: драма, комедия
Продолжительность: 01:36:17.187 (138514 frames)
Перевод: Одноголосый закадровый - Jet
Русские субтитры: нет
Режиссер: Чжу Му / Chu Mu
В ролях: Джеки Чан, Саммо Хунг, Дин Шек, Джеймс Тьен, Лидия Шум, Картер Вонг, Стивен Тунг, Ванг Лай, Вонг Сам
Описание: Фильм состоит из двух историй. Первая рассказывает о семье, которая собралась рядом с умирающим главой рода. Все только и думают не об отце, а о наследстве. Это воссоединение дало понять, что они являются старыми соперниками. После смерти отца родственники начинают бороться за наследство.
Вторая история повествует о жизни рикши. Городская проститутка хочет, чтобы Сье Тан занялся любовью с ее дочерью. Он явно производит на нее впечаление своим крепким телом. Мать прячется и подглядывает, а затем также хочет заняться с ним любовью. Но она больна венерическим заболеванием и заражает ею всех мужчин с которыми спит. Не становится исключением и Сье Тан.
Качество: DVDRip
Формат: AVI
Видео кодек: XviD
Аудио кодек: MP3
Видео: 688x288 (2.39:1), 23.976 fps, XviD build 50 ~944 kbps avg, 0.20 bit/pixel
Аудио: 48 kHz, MPEG Layer 3, 2 ch, ~128.00 kbps avg

Скриншоты

Медиаинфо

General
Complete name : D:\001 МОИ РАЗДАЧИ\Все в семье 745\vse_v_seme_745_[torrents.ru]_by_bm11.avi
Format : AVI
Format/Info : Audio Video Interleave
File size : 745 MiB
Duration : 1h 36mn
Overall bit rate : 1 082 Kbps
Writing application : VirtualDubMod 1.5.10.2 (build 2540/release)
Writing library : VirtualDubMod build 2540/release
Video
Format : MPEG-4 Visual
Format profile : Streaming Video@L1
Format settings, BVOP : Yes
Format settings, QPel : No
Format settings, GMC : No warppoints
Format settings, Matrix : Custom
Codec ID : XVID
Codec ID/Hint : XviD
Duration : 1h 36mn
Bit rate : 944 Kbps
Width : 688 pixels
Height : 288 pixels
Display aspect ratio : 2.35
Frame rate : 23.976 fps
Resolution : 24 bits
Colorimetry : 4:2:0
Scan type : Progressive
Bits/(Pixel*Frame) : 0.199
Stream size : 650 MiB (87%)
Writing library : XviD 50
Audio
Format : MPEG Audio
Format version : Version 1
Format profile : Layer 3
Codec ID : 55
Codec ID/Hint : MP3
Duration : 1h 36mn
Bit rate mode : Constant
Bit rate : 128 Kbps
Channel(s) : 2 channels
Sampling rate : 48.0 KHz
Resolution : 16 bits
Stream size : 88.2 MiB (12%)
Alignment : Aligned on interleaves
Interleave, duration : 42 ms (1.00 video frame)
Interleave, preload duration : 504 ms
Скачать

Скачать торрент! Все в семье / Hua fei man cheng chun (Чжу Му / Chu Mu) [1975, Гонконг, драма, комедия, DVDRip] VO

Как скачивать? · Что такое торрент? · Рейтинг и ограничения

Сайт не распространяет и не хранит электронные версии произведений, а лишь предоставляет доступ к создаваемому пользователями каталогу ссылок на торрент-файлы, которые содержат только списки хеш-сумм

[Профиль] [ЛС]
Показать сообщения:    
Ответить на тему

Текущее время: Сегодня 20:46

Часовой пояс: GMT + 4



Вы не можете начинать темы
Вы не можете отвечать на сообщения
Вы не можете редактировать свои сообщения
Вы не можете удалять свои сообщения
Вы не можете голосовать в опросах
Вы не можете прикреплять файлы к сообщениям
Вы не можете скачивать файлы