Прошлым летом в Чулимске (Виктор Демент) [2014, Россия, Мелодрама, HDTV 1080i] + Original Rus

Ответить на тему
 
Автор Сообщение

user ®

Стаж: 7 лет 7 месяцев

Сообщений: 20008

Пост Пост: #1 от 21-Апр-2014 01:10

[Цитировать]

Прошлым летом в Чулимске
Страна: Россия
Студия: Кинокомпания "Талан"
Жанр: Мелодрама
Год выпуска: 2014
Продолжительность: 01:26:01
Перевод: Не требуется
Cубтитры: нет
Оригинальная аудиодорожка: русский
Режиссер: Виктор Демент
В ролях: Сергей Безруков, Мария Поезжаева, Анна Невская, Маргарита Шубина, Александр Самойленко
Описание: Жизнь небольшого таежного городка Чулимска вращается вокруг маленького буфета в котором работает молодая девушка Валентина. Валентина влюблена в следователя Шаманова, закрытого, строгого, но обаятельного мужчину, который недавно приехал в Чулимск. Несмотря на любовные отношения Шаманова с аптекаршей Зиной и его зрелый возраст, Валентина находит в себе мужество признаться Шаманову в любви. До этого момента никогда не замечавший красоту и уникальность Валентины, Шаманов вдруг осознаёт, что эта милая, скромная девушка и есть его счастье…
Сэмпл: http://multi-up.com/968215
Тип релиза: HDTV 1080i
Контейнер: TS
Видео: MPEG-4 AVC; 1920x1080; 7158 Kbps; 25 fps
Аудио: MPEG Audio, 2 ch, 48 kHz, 224 kbps

MediaInfo

General
ID : 1 (0x1)
Complete name : Proshlym.letom.v.Chulimske.2013.HDTV.1080i.ts
Format : MPEG-TS
File size : 4.67 GiB
Duration : 1h 26mn
Overall bit rate mode : Variable
Overall bit rate : 7 768 Kbps
Video
ID : 1901 (0x76D)
Menu ID : 1 (0x1)
Format : AVC
Format/Info : Advanced Video Codec
Format profile : High@L4.0
Format settings, CABAC : Yes
Format settings, ReFrames : 3 frames
Codec ID : 27
Duration : 1h 26mn
Bit rate : 7 158 Kbps
Width : 1 920 pixels
Height : 1 080 pixels
Display aspect ratio : 16:9
Frame rate : 25.000 fps
Standard : Component
Color space : YUV
Chroma subsampling : 4:2:0
Bit depth : 8 bits
Scan type : Interlaced
Scan order : Top Field First
Bits/(Pixel*Frame) : 0.138
Stream size : 4.30 GiB (92%)
Color primaries : BT.709
Transfer characteristics : BT.709
Matrix coefficients : BT.709
Audio
ID : 2901 (0xB55)
Menu ID : 1 (0x1)
Format : MPEG Audio
Format version : Version 1
Format profile : Layer 2
Codec ID : 3
Duration : 1h 26mn
Bit rate mode : Constant
Bit rate : 224 Kbps
Channel(s) : 2 channels
Sampling rate : 48.0 KHz
Compression mode : Lossy
Stream size : 138 MiB (3%)
Language : Russian

Скриншоты


Скачать

Скачать торрент!

Как скачивать? · Что такое торрент? · Рейтинг и ограничения

Сайт не распространяет и не хранит электронные версии произведений, а лишь предоставляет доступ к создаваемому пользователями каталогу ссылок на торрент-файлы, которые содержат только списки хеш-сумм

[Профиль] [ЛС]
Показать сообщения:    
Ответить на тему

Текущее время: Сегодня 00:04

Часовой пояс: GMT + 4



Вы не можете начинать темы
Вы не можете отвечать на сообщения
Вы не можете редактировать свои сообщения
Вы не можете удалять свои сообщения
Вы не можете голосовать в опросах
Вы не можете прикреплять файлы к сообщениям
Вы не можете скачивать файлы