Авария / Breakdown (Джонатан Мостоу / Jonathan Mostow) [1997, США, триллер, криминал, детектив, WEB-DL 720p] MVO + 3х DVO + 2х AVO + Ukr + Original Eng + Sub Rus, Eng

Ответить на тему
 
Автор Сообщение

user ®

Стаж: 7 лет 7 месяцев

Сообщений: 20008

Пост Пост: #1 от 21-Апр-2014 01:10

[Цитировать]

Авария / Breakdown
"Это может случиться с каждым"
7.454 / 10
- Год выпуска: 1997
Страна: США
Жанр: триллер, криминал, детектив
Продолжительность: 01:33:27
Перевод: Многоголосый закадровый перевод, Двухголосый закадровый перевод, Одноголосый авторский перевод
Оригинальная аудиодорожка: английский
Cубтитры: Русские полные, английские полные
Режиссёр: Джонатан Мостоу / Jonathan Mostow
Сценарий: Джонатан Мостоу, Сэм Монтгомери
Продюсер: Дино Де Лаурентис, Марта Де Лаурентис, Гарри Коломби
Оператор: Дуглас Милсом
Композитор: Бэзил Поледурис
Художник: Виктория Пол, Ли Мэймен, Терри Дресбах
Монтаж: Дерек Бречин, Кевин Ститт
В ролях: Курт Рассел, Дж.Т. Уолш, Кэтлин Куинлен, М. К. Гейни, Джек Ноузуорти, Рекс Линн, Рич Бринкли, Мойра Харрис, Ким Робиллард, Томас Копаче
Бюджет: $36 000 000
Сборы в США: $50 159 144
Мировая премьера: 2 мая 1997
Релиз на DVD: 1 сентября 1999, Videogram
Описание: Джефф и Эми Тейлор решили переехать к новому месту жительства в Сан-Диего на дорогом джипе. По дороге Джефф чуть не врезался в пикап с двумя местными отморозками. А когда джип неожиданно заглох на обочине пустынной трассы, водитель попутного трейлера Рэд Барр предложил подвезти Эми до ближайшего телефона, а Джефф остался охранять машину.
С этого момента его жизнь превращается в кошмарный сон. В придорожном кафе, где он договорился встретиться с женой, Джефф не находит Эми. Оказывается, доморощенные бандиты решили взять за похищенную женщину выкуп. И тогда миролюбивый обыватель Джефф, вырвавшись из-под стволов вымогателей, сам превращается в безжалостного охотника...-Источник: WEB-DL (iTunes US)
Видео: 1280x544 at 23.976 fps, MPEG-4 AVC, ~4000 kbps avg
Аудио#1: Russian: 48 kHz, AC3, 3/2 (L,C,R,l,r) + LFE ch, ~448.00 kbps avg |Двухголосый закадровый, НТВ+|
Аудио#2: Russian: 48 kHz, AC3, 3/2 (L,C,R,l,r) + LFE ch, ~384.00 kbps avg |Двухголосый закадровый, Twister|
Аудио#3: Russian: 48 kHz, AC3, 2/0 (L,R) ch, ~192.00 kbps avg |Многоголосый закадровый, CTC|
Аудио#4: Russian: 48 kHz, AC3, 2/0 (L,R) ch, ~192.00 kbps avg |Двухголосый закадровый, TV1000|
Аудио#5: Russian: 48 kHz, AC3, 3/2 (L,C,R,l,r) + LFE ch, ~384.00 kbps avg |Одноголосый закадровый, А. Гаврилов|
Аудио#6: Russian: 48 kHz, AC3, 2/0 (L,R) ch, ~192.00 kbps avg |Одноголосый закадровый, Ю. Живов|
Аудио#7: Ukrainian: 48 kHz, AC3, 2/0 (L,R) ch, ~192.00 kbps avg |Многоголосый закадровый, ICTV|
Аудио#8: English: 48 kHz, AC3, 3/2 (L,C,R,l,r) + LFE ch, ~384.00 kbps avg |iTunes US|
Субтитры: Russian, English-Сэмпл: Продолжительность 1 минута (00:27:16-00:28:16)-

Знаете ли Вы, что...

  • Курта Рассела каждый день доставляли на съёмочную площадку и обратно вертолётом, чтобы он мог ночевать со своей семьёй в Лос-Анджелесе.
  • Часть карты, которую видят зрители вначале картины, изображает штат Нью-Мексико. Вместе с тем, все названия изменены, и упоминающихся в фильме населённых пунктов в США нет.
  • Идея фильма пришла в голову Мостоу, когда он ехал со своей женой по Неваде.

-

MediaInfo

General
Unique ID : 239478110127640913027338147020319460995 (0xB429CE6BC6476E54BFF9021B1C2B8E83)
Complete name : /Users/yvu/TorrentContent/FromInet/Movies/Breakdown.1997.720p.WEB-DL.6xRus.Ukr.Eng.HDCLUB.mkv
Format : Matroska
Format version : Version 2
File size : 4.11 GiB
Duration : 1h 33mn
Overall bit rate : 6 298 Kbps
Encoded date : UTC 2014-04-19 12:27:56
Writing application : mkvmerge v5.7.0 ('The Whirlwind') built on Jul  8 2012 20:08:51
Writing library : libebml v1.2.3 + libmatroska v1.3.0
Video
ID : 1
Format : AVC
Format/Info : Advanced Video Codec
Format profile : Main@L3.1
Format settings, CABAC : No
Format settings, ReFrames : 2 frames
Format settings, GOP : N=1
Codec ID : V_MPEG4/ISO/AVC
Duration : 1h 33mn
Bit rate : 3 804 Kbps
Width : 1 280 pixels
Height : 544 pixels
Display aspect ratio : 2.35:1
Original display aspect ratio : 2.35:1
Frame rate mode : Constant
Frame rate : 23.976 fps
Color space : YUV
Chroma subsampling : 4:2:0
Bit depth : 8 bits
Scan type : Progressive
Bits/(Pixel*Frame) : 0.228
Stream size : 2.48 GiB (60%)
Title : WEB-DL 720p (iTunes US)
Language : English
Default : Yes
Forced : No
Color primaries : BT.709
Transfer characteristics : BT.709
Matrix coefficients : BT.709
Audio #1
ID : 2
Format : AC-3
Format/Info : Audio Coding 3
Mode extension : CM (complete main)
Format settings, Endianness : Big
Codec ID : A_AC3
Duration : 1h 33mn
Bit rate mode : Constant
Bit rate : 448 Kbps
Channel(s) : 6 channels
Channel positions : Front: L C R, Side: L R, LFE
Sampling rate : 48.0 KHz
Bit depth : 16 bits
Compression mode : Lossy
Stream size : 299 MiB (7%)
Title : AC3 5.1 448Kbps | Профессиональный двухголосый, НТВ+ |
Language : Russian
Default : Yes
Forced : No
Audio #2
ID : 3
Format : AC-3
Format/Info : Audio Coding 3
Mode extension : CM (complete main)
Format settings, Endianness : Big
Codec ID : A_AC3
Duration : 1h 33mn
Bit rate mode : Constant
Bit rate : 384 Kbps
Channel(s) : 6 channels
Channel positions : Front: L C R, Side: L R, LFE
Sampling rate : 48.0 KHz
Bit depth : 16 bits
Compression mode : Lossy
Stream size : 257 MiB (6%)
Title : AC3 5.1 384Kbps | Профессиональный двухголосый, Twister |
Language : Russian
Default : No
Forced : No
Audio #3
ID : 4
Format : AC-3
Format/Info : Audio Coding 3
Mode extension : CM (complete main)
Format settings, Endianness : Big
Codec ID : A_AC3
Duration : 1h 33mn
Bit rate mode : Constant
Bit rate : 192 Kbps
Channel(s) : 2 channels
Channel positions : Front: L R
Sampling rate : 48.0 KHz
Bit depth : 16 bits
Compression mode : Lossy
Stream size : 128 MiB (3%)
Title : AC3 2.0 192Kbps | Профессиональный многоголосый, СТС |
Language : Russian
Default : No
Forced : No
Audio #4
ID : 5
Format : AC-3
Format/Info : Audio Coding 3
Mode extension : CM (complete main)
Format settings, Endianness : Big
Codec ID : A_AC3
Duration : 1h 33mn
Bit rate mode : Constant
Bit rate : 192 Kbps
Channel(s) : 2 channels
Channel positions : Front: L R
Sampling rate : 48.0 KHz
Bit depth : 16 bits
Compression mode : Lossy
Stream size : 128 MiB (3%)
Title : AC3 2.0 192Kbps | Профессиональный двухголосый, TV1000 |
Language : Russian
Default : No
Forced : No
Audio #5
ID : 6
Format : AC-3
Format/Info : Audio Coding 3
Mode extension : CM (complete main)
Format settings, Endianness : Big
Codec ID : A_AC3
Duration : 1h 33mn
Bit rate mode : Constant
Bit rate : 384 Kbps
Channel(s) : 6 channels
Channel positions : Front: L C R, Side: L R, LFE
Sampling rate : 48.0 KHz
Bit depth : 16 bits
Compression mode : Lossy
Stream size : 257 MiB (6%)
Title : AC3 5.1 384Kbps | Авторский одноголосый, А.Гаврилов |
Language : Russian
Default : No
Forced : No
Audio #6
ID : 7
Format : AC-3
Format/Info : Audio Coding 3
Mode extension : CM (complete main)
Format settings, Endianness : Big
Codec ID : A_AC3
Duration : 1h 33mn
Bit rate mode : Constant
Bit rate : 192 Kbps
Channel(s) : 2 channels
Channel positions : Front: L R
Sampling rate : 48.0 KHz
Bit depth : 16 bits
Compression mode : Lossy
Stream size : 128 MiB (3%)
Title : AC3 2.0 192Kbps | Авторский одноголосый, Ю.Живов |
Language : Russian
Default : No
Forced : No
Audio #7
ID : 8
Format : AC-3
Format/Info : Audio Coding 3
Mode extension : CM (complete main)
Format settings, Endianness : Big
Codec ID : A_AC3
Duration : 1h 33mn
Bit rate mode : Constant
Bit rate : 192 Kbps
Channel(s) : 2 channels
Channel positions : Front: L R
Sampling rate : 48.0 KHz
Bit depth : 16 bits
Compression mode : Lossy
Stream size : 128 MiB (3%)
Title : AC3 2.0 192Kbps | Профессиональный многоголосый, ICTV |
Language : Ukrainian
Default : No
Forced : No
Audio #8
ID : 9
Format : AC-3
Format/Info : Audio Coding 3
Mode extension : CM (complete main)
Format settings, Endianness : Big
Codec ID : A_AC3
Duration : 1h 33mn
Bit rate mode : Constant
Bit rate : 384 Kbps
Channel(s) : 6 channels
Channel positions : Front: L C R, Side: L R, LFE
Sampling rate : 48.0 KHz
Bit depth : 16 bits
Compression mode : Lossy
Stream size : 257 MiB (6%)
Title : AC3 5.1 384Kbps | Original, iTunes US |
Language : English
Default : No
Forced : No
Text #1
ID : 10
Format : UTF-8
Codec ID : S_TEXT/UTF8
Codec ID/Info : UTF-8 Plain Text
Title : Full.
Language : Russian
Default : No
Forced : No
Text #2
ID : 11
Format : UTF-8
Codec ID : S_TEXT/UTF8
Codec ID/Info : UTF-8 Plain Text
Title : Full.
Language : English
Default : No
Forced : No
Menu
00:00:00.000 : en:Opening Credits
00:02:45.000 : en:A Near Miss
00:03:47.000 : en:Last Chance For Gas
00:07:35.000 : en:Breakdown
00:10:30.000 : en:Hitching A Ride
00:13:54.000 : en:Fixing The Problem
00:15:05.000 : en:Belle's Diner
00:18:06.000 : en:Mistaken Identity
00:20:50.000 : en:No Visible Evidence
00:27:16.000 : en:Missing Persons
00:28:42.000 : en:Back At Belle's
00:31:24.000 : en:Billy Knows
00:33:19.000 : en:In Close Pursuit
00:35:58.000 : en:Down River
00:39:38.000 : en:The Exact Dollar Amount
00:44:24.000 : en:Downtown Brackett
00:51:12.000 : en:Turning The Tables
00:57:09.000 : en:Officer Down
01:00:08.000 : en:Texaco Truckstop
01:02:08.000 : en:Stowaway
01:05:26.000 : en:Home Early
01:08:54.000 : en:Unloading Truck
01:12:46.000 : en:Armed And Dangerous
01:13:57.000 : en:Den Of Thieves
01:17:09.000 : en:Getting Free
01:19:31.000 : en:Run For It
01:21:22.000 : en:Drive For Your Life
01:23:09.000 : en:The Bridge
01:24:57.000 : en:Over The Edge
01:27:39.000 : en:Revenge
01:29:28.000 : en:End Credits

Скриншоты 720p Release


  • Исходный WEB-DL куплен в iTunes (US). Спасибо улетает: jhonny2.
  • Сохранены и подписаны оригинальные чаптеры.
  • За дорожки 1,2,5,6 Спасибо улетает: undre19.
  • За дороги СТС и TV1000 Спасибо: _Bаbаngidа_.
  • За украинскую дорожку спасибо улеатает: порталу hurtom.
  • За помощь в работе Спасибо улетает: Steal.
-
Скачать

Скачать торрент!

Как скачивать? · Что такое торрент? · Рейтинг и ограничения

Сайт не распространяет и не хранит электронные версии произведений, а лишь предоставляет доступ к создаваемому пользователями каталогу ссылок на торрент-файлы, которые содержат только списки хеш-сумм

[Профиль] [ЛС]
Показать сообщения:    
Ответить на тему

Текущее время: Сегодня 22:35

Часовой пояс: GMT + 4



Вы не можете начинать темы
Вы не можете отвечать на сообщения
Вы не можете редактировать свои сообщения
Вы не можете удалять свои сообщения
Вы не можете голосовать в опросах
Вы не можете прикреплять файлы к сообщениям
Вы не можете скачивать файлы