Джордж Вашингтон / George Washington (Дэвид Гордон Грин / David Gordon Green) [2000, США, драма, BDRip 720p] MVO + Sub Eng + Original Eng

Ответить на тему
 
Автор Сообщение

user ®

Стаж: 7 лет 7 месяцев

Сообщений: 20008

Пост Пост: #1 от 21-Апр-2014 01:10

[Цитировать]

Джордж Вашингтон / George Washington
Страна: США
Студия: Blue Moon Filmed Productions и др.
Жанр: драма
Год выпуска: 2000
Продолжительность: 01:30:17
Перевод: Профессиональный (многоголосый закадровый) R5
Cубтитры: английские (full, SDH)
Оригинальная аудиодорожка: английский
Режиссер: Дэвид Гордон Грин / David Gordon Green
В ролях: Пол Шнайдер, Кэндас Эвановски, Дональд Холден, Дамиан Джюан Ли, Кертис Коттон, Рэйчел Хэнди
Описание: В одном из захолустных городков Северной Каролины невинная игра группы подростков оборачивается страшной трагедией, повлекшей за собой вереницу лжи и необходимость принимать совсем не детские решения…

Sample
Тип релиза: BDRip 720p (видеоряд от EbP)
Контейнер: MKV
Видео: MPEG4 AVC Video, H264, 16:9, 2.40:1, 1280x540, 23,976 fps, 6658 kbps
Аудио: Russian (AC3, 2 ch, 192 kbps, 16 bits, 48.0 KHz) - MVO R5
Аудио 2: English (DTS, 2 ch, 1509 kbps, 24 bits, 48.0 KHz) - оригинал с ВD Criterion
Формат субтитров: softsub (SRT)

MediaInfo

General
Unique ID : 223227627582317846718443531336587977533 (0xA7F013C5D6BCD00B88B1B76C504CA33D)
Complete name : E:\1\George.Washington.2000.720p.BluRay.x264-EbP.mkv
Format : Matroska
Format version : Version 4 / Version 2
File size : 5.27 GiB
Duration : 1h 30mn
Overall bit rate : 8 358 Kbps
Encoded date : UTC 2014-04-20 01:36:30
Writing application : mkvmerge v6.1.0 ('Old Devil') built on Mar 2 2013 14:32:37
Writing library : libebml v1.3.0 + libmatroska v1.4.0
Video
ID : 1
Format : AVC
Format/Info : Advanced Video Codec
Format profile : High@L4.1
Format settings, CABAC : Yes
Format settings, ReFrames : 11 frames
Codec ID : V_MPEG4/ISO/AVC
Duration : 1h 30mn
Bit rate : 6 658 Kbps
Width : 1 280 pixels
Height : 540 pixels
Display aspect ratio : 2.40:1
Frame rate mode : Constant
Frame rate : 23.976 fps
Color space : YUV
Chroma subsampling : 4:2:0
Bit depth : 8 bits
Scan type : Progressive
Bits/(Pixel*Frame) : 0.402
Stream size : 4.09 GiB (78%)
Title : George.Washington.2000.720p.BluRay.x264-EbP
Writing library : x264 core 140 r2377 1ca7bb9
Encoding settings : cabac=1 / ref=11 / deblock=1:-3:-3 / analyse=0x3:0x133 / me=umh / subme=11 / psy=1 / psy_rd=1.05:0.00 / mixed_ref=1 / me_range=32 / chroma_me=1 / trellis=2 / 8x8dct=1 / cqm=0 / deadzone=21,11 / fast_pskip=0 / chroma_qp_offset=-2 / threads=48 / lookahead_threads=4 / sliced_threads=0 / nr=0 / decimate=0 / interlaced=0 / bluray_compat=0 / constrained_intra=0 / bframes=9 / b_pyramid=2 / b_adapt=2 / b_bias=0 / direct=3 / weightb=1 / open_gop=0 / weightp=2 / keyint=240 / keyint_min=23 / scenecut=40 / intra_refresh=0 / rc_lookahead=125 / rc=2pass / mbtree=0 / bitrate=6658 / ratetol=1.0 / qcomp=0.60 / qpmin=0 / qpmax=69 / qpstep=4 / cplxblur=20.0 / qblur=0.5 / vbv_maxrate=62500 / vbv_bufsize=78125 / nal_hrd=none / filler=0 / ip_ratio=1.40 / pb_ratio=1.30 / aq=2:0.60
Language : English
Default : Yes
Forced : No
Audio #1
ID : 2
Format : AC-3
Format/Info : Audio Coding 3
Mode extension : CM (complete main)
Format settings, Endianness : Big
Codec ID : A_AC3
Duration : 1h 30mn
Bit rate mode : Constant
Bit rate : 192 Kbps
Channel count : 2 channels
Channel positions : Front: L R
Sampling rate : 48.0 KHz
Bit depth : 16 bits
Compression mode : Lossy
Stream size : 124 MiB (2%)
Language : Russian
Default : Yes
Forced : Yes
Audio #2
ID : 3
Format : DTS
Format/Info : Digital Theater Systems
Mode : 16
Format settings, Endianness : Big
Codec ID : A_DTS
Duration : 1h 30mn
Bit rate mode : Constant
Bit rate : 1 509 Kbps
Channel count : 2 channels
Channel positions : Front: L R
Sampling rate : 48.0 KHz
Bit depth : 24 bits
Compression mode : Lossy
Stream size : 974 MiB (18%)
Language : English
Default : No
Forced : No
Text #1
ID : 4
Format : UTF-8
Codec ID : S_TEXT/UTF8
Codec ID/Info : UTF-8 Plain Text
Language : English
Default : No
Forced : No
Text #2
ID : 5
Format : UTF-8
Codec ID : S_TEXT/UTF8
Codec ID/Info : UTF-8 Plain Text
Title : SDH
Language : English
Default : No
Forced : No
Menu
00:00:00.000 : en:00:00:00.000
00:06:33.518 : en:00:06:33.518
00:12:13.524 : en:00:12:13.524
00:18:51.047 : en:00:18:51.047
00:24:06.445 : en:00:24:06.445
00:27:22.516 : en:00:27:22.516
00:31:20.670 : en:00:31:20.670
00:42:39.140 : en:00:42:39.140
00:49:18.789 : en:00:49:18.789
00:52:49.124 : en:00:52:49.124
00:55:28.867 : en:00:55:28.867
01:00:46.101 : en:01:00:46.101
01:09:41.594 : en:01:09:41.594
01:14:22.625 : en:01:14:22.625
01:23:22.080 : en:01:23:22.080

Скриншоты

Внимание!!! Торрент перезалит 20.04.2014 в 06:00 мск!Русская дорожка переделана.
Скачать

Скачать торрент!

Как скачивать? · Что такое торрент? · Рейтинг и ограничения

Сайт не распространяет и не хранит электронные версии произведений, а лишь предоставляет доступ к создаваемому пользователями каталогу ссылок на торрент-файлы, которые содержат только списки хеш-сумм

[Профиль] [ЛС]
Показать сообщения:    
Ответить на тему

Текущее время: Сегодня 15:33

Часовой пояс: GMT + 4



Вы не можете начинать темы
Вы не можете отвечать на сообщения
Вы не можете редактировать свои сообщения
Вы не можете удалять свои сообщения
Вы не можете голосовать в опросах
Вы не можете прикреплять файлы к сообщениям
Вы не можете скачивать файлы