Замкнутая цепь / Closed Circuit (Джон Краули / John Crowley) [2013 г., Великобритания, США, Триллер, драма, криминал, детектив, BDRip 720p] VO (Виноградов) + Sub (Eng) + Original (Eng)

Ответить на тему
 
Автор Сообщение

user ®

Стаж: 7 лет 7 месяцев

Сообщений: 20008

Пост Пост: #1 от 21-Апр-2014 01:10

[Цитировать]

Замкнутая цепь
Closed Circuit
- Производство: Великобритания, США
Жанры: Триллер, драма, криминал, детектив
Год выпуска: 2013
Продолжительность: 1:36:02-Перевод: Одноголосый закадровый - Дмитрий Виноградов
Cубтитры: английские - внутри контейнера
Оригинальная аудиодорожка: английская-Режиссер: Джон Краули / John Crowley-В ролях: Эрик Бана, Ребекка Холл, Киаран Хайндс, Джим Бродбент, Кейт Лок, Кэтерин Пресс, Патрик Уорнер, Рики Никсон, Дэниэл Туит, Зора Бишоп.-На повестке дня — борьба с терроризмом. Угроза очередного террористического выпада объединяет экс-любовников Клодию и Мартина, зачисленных в команду сопротивления злодеям. С риском для жизни они не только устраняют угрозу, но и проверяют, на фоне главных мировых достопримечательностей, угасли ли их романтические чувства или что-то ещё искрит.-Сэмпл: http://sendfile.su/969814-Качество видео: BDRip 720p
Энкод: CtrlHD
Формат видео: MKV-Видео: x264; 1280x534; 23.976 fps; 6620 Kbps
Аудио: AC-3; 48.0 KHz; 192 Kbps; 2 channels - VO
Аудио 2: DTS; 48.0 KHz; 1509 Kbps; 6 channels - Original
Формат субтитров: softsub (SRT)-

MediaInfo

General
Unique ID : 239127935321532058893772650183324938520 (0xB3E65D78578DABDBB210F76A14CD3118)
Complete name : E:\Movies\Closed.Circuit.2013.720p.BluRay.DTS.AC3.x264.Rus.mkv
Format : Matroska
Format version : Version 4 / Version 2
File size : 5.58 GiB
Duration : 1h 36mn
Overall bit rate : 8 317 Kbps
Encoded date : UTC 2014-04-20 08:16:31
Writing application : mkvmerge v6.9.1 ('Blue Panther') 64bit built on Apr 18 2014 18:23:38
Writing library : libebml v1.3.0 + libmatroska v1.4.1
Video
ID : 1
Format : AVC
Format/Info : Advanced Video Codec
Format profile : High@L4.1
Format settings, CABAC : Yes
Format settings, ReFrames : 12 frames
Codec ID : V_MPEG4/ISO/AVC
Duration : 1h 36mn
Bit rate : 6 620 Kbps
Width : 1 280 pixels
Height : 534 pixels
Display aspect ratio : 2.40:1
Frame rate mode : Constant
Frame rate : 23.976 fps
Color space : YUV
Chroma subsampling : 4:2:0
Bit depth : 8 bits
Scan type : Progressive
Bits/(Pixel*Frame) : 0.404
Stream size : 4.33 GiB (78%)
Writing library : x264 core 133 r2334 a3ac64b
Encoding settings : cabac=1 / ref=12 / deblock=1:-3:-3 / analyse=0x3:0x113 / me=tesa / subme=11 / psy=1 / psy_rd=1.10:0.00 / mixed_ref=1 / me_range=32 / chroma_me=1 / trellis=2 / 8x8dct=1 / cqm=0 / deadzone=21,11 / fast_pskip=0 / chroma_qp_offset=-4 / threads=12 / lookahead_threads=2 / sliced_threads=0 / nr=0 / decimate=0 / interlaced=0 / bluray_compat=0 / constrained_intra=0 / bframes=8 / b_pyramid=2 / b_adapt=2 / b_bias=0 / direct=3 / weightb=1 / open_gop=0 / weightp=2 / keyint=250 / keyint_min=23 / scenecut=40 / intra_refresh=0 / rc=2pass / mbtree=0 / bitrate=6620 / ratetol=1.0 / qcomp=0.70 / qpmin=0 / qpmax=69 / qpstep=4 / cplxblur=20.0 / qblur=0.5 / ip_ratio=1.20 / pb_ratio=1.30 / aq=1:0.85
Language : English
Default : Yes
Forced : No
Audio #1
ID : 2
Format : AC-3
Format/Info : Audio Coding 3
Mode extension : CM (complete main)
Format settings, Endianness : Big
Codec ID : A_AC3
Duration : 1h 36mn
Bit rate mode : Constant
Bit rate : 192 Kbps
Channel(s) : 2 channels
Channel positions : Front: L R
Sampling rate : 48.0 KHz
Bit depth : 16 bits
Compression mode : Lossy
Stream size : 132 MiB (2%)
Title : VO Дмитрий Виноградов
Language : Russian
Default : Yes
Forced : Yes
Audio #2
ID : 3
Format : DTS
Format/Info : Digital Theater Systems
Mode : 16
Format settings, Endianness : Big
Codec ID : A_DTS
Duration : 1h 36mn
Bit rate mode : Constant
Bit rate : 1 509 Kbps
Channel(s) : 6 channels
Channel positions : Front: L C R, Side: L R, LFE
Sampling rate : 48.0 KHz
Bit depth : 24 bits
Compression mode : Lossy
Stream size : 1.01 GiB (18%)
Language : English
Default : No
Forced : No
Text
ID : 4
Format : UTF-8
Codec ID : S_TEXT/UTF8
Codec ID/Info : UTF-8 Plain Text
Language : English
Default : No
Forced : No
Menu
00:00:00.000 : en:00:00:00.000
00:05:04.595 : en:00:05:04.595
00:10:29.879 : en:00:10:29.879
00:15:28.844 : en:00:15:28.844
00:21:37.754 : en:00:21:37.754
00:25:39.829 : en:00:25:39.829
00:30:22.821 : en:00:30:22.821
00:34:12.592 : en:00:34:12.592
00:40:17.915 : en:00:40:17.915
00:45:10.416 : en:00:45:10.416
00:50:56.928 : en:00:50:56.928
00:54:49.119 : en:00:54:49.119
01:02:06.139 : en:01:02:06.139
01:05:46.984 : en:01:05:46.984
01:11:58.230 : en:01:11:58.230
01:16:25.038 : en:01:16:25.038
01:19:44.321 : en:01:19:44.321
01:22:34.449 : en:01:22:34.449
01:27:59.983 : en:01:27:59.983
01:31:54.967 : en:01:31:54.967

Скриншот c названием фильма

Скриншоты

Скачать

Скачать торрент!

Как скачивать? · Что такое торрент? · Рейтинг и ограничения

Сайт не распространяет и не хранит электронные версии произведений, а лишь предоставляет доступ к создаваемому пользователями каталогу ссылок на торрент-файлы, которые содержат только списки хеш-сумм

[Профиль] [ЛС]
Показать сообщения:    
Ответить на тему

Текущее время: Сегодня 03:15

Часовой пояс: GMT + 4



Вы не можете начинать темы
Вы не можете отвечать на сообщения
Вы не можете редактировать свои сообщения
Вы не можете удалять свои сообщения
Вы не можете голосовать в опросах
Вы не можете прикреплять файлы к сообщениям
Вы не можете скачивать файлы