С 8 марта, мужчины! (Артем Аксененко) [2014, Комедия, мелодрама, WEB-DLRip]

Ответить на тему
 
Автор Сообщение

user ®

Стаж: 7 лет 7 месяцев

Сообщений: 20008

Пост Пост: #1 от 20-Апр-2014 16:50

[Цитировать]

С 8 марта, мужчины!
Жанр: Комедия, мелодрама
Год выпуска: 2014
Продолжительность: 01:36:56
Режиссёр: Артем Аксененко
В ролях: Мария Берсенева, Максим Виторган, Светлана Иванова, Михаил Башкатов, Вера Алентова, Константин Лавиш, Ксения Бородина, Владислав Лисовец, Стивен Нельсон, Алексей Климушкин
Описание: Анна Беркутова — блондинка в броне из мини-юбки и глубокого декольте. Ее оружие — красота, ум и абсолютная уверенность в том, что она знает мужчин. Она ведет важный проект в Сколково и собирается замуж за богатого иностранца. Но в день ее рождения, 8 марта, ее четкая, как финансовый отчет, судьба меняется: Аню бросает жених, ее проект крадут из Сколково, а сама она начинает слышать мысли мужчин. Эта способность сначала доводит ее до отчаяния, а затем открывает широкие возможности…
Сэмпл: http://multi-up.com/968224
Качество видео: WEB-DLRip
Формат видео: AVI
Видео: XviD, 1816 Кбит/с, 720x400, 25,000 кадров/сек
Аудио: AC3, 2 ch, 192 Кбит/с, 48,0 КГц

MediaInfo

I:\С 8 марта, мужчины!\S.8.Maer0.Muzhiki.2014.O.WEBRip.1400Mb.avi
General
Complete name : I:\С 8 марта, мужчины!\S.8.Maer0.Muzhiki.2014.O.WEBRip.1400Mb.avi
Format : AVI
Format/Info : Audio Video Interleave
File size : 1.37 GiB
Duration : 1h 36mn
Overall bit rate : 2 018 Kbps
Writing application : VirtualDubMod 1.5.10.2 (build 2540/release)
Writing library : VirtualDubMod build 2540/release
Video #0
ID : 0
Format : MPEG-4 Visual
Format profile : Advanced Simple@L5
Format settings, BVOP : 2
Format settings, QPel : No
Format settings, GMC : No warppoints
Format settings, Matrix : Custom
Codec ID : XVID
Codec ID/Hint : XviD
Duration : 1h 36mn
Bit rate : 1 816 Kbps
Width : 720 pixels
Height : 400 pixels
Display aspect ratio : 16:9
Frame rate : 25.000 fps
Color space : YUV
Chroma subsampling : 4:2:0
Bit depth : 8 bits
Scan type : Progressive
Compression mode : Lossy
Bits/(Pixel*Frame) : 0.252
Stream size : 1.23 GiB (90%)
Writing library : XviD 1.2.1 (UTC 2008-12-04)
Audio #1
ID : 1
Format : AC-3
Format/Info : Audio Coding 3
Mode extension : CM (complete main)
Format settings, Endianness : Big
Codec ID : 2000
Duration : 1h 36mn
Bit rate mode : Constant
Bit rate : 192 Kbps
Channel count : 2 channels
Channel positions : Front: L R
Sampling rate : 48.0 KHz
Bit depth : 16 bits
Compression mode : Lossy
Stream size : 133 MiB (10%)
Alignment : Split accross interleaves
Interleave, duration : 40 ms (1.00 video frame)
Interleave, preload duration : 500 ms

Скриншот c названием фильма

Скриншоты

Скачать

Скачать торрент!

Как скачивать? · Что такое торрент? · Рейтинг и ограничения

Сайт не распространяет и не хранит электронные версии произведений, а лишь предоставляет доступ к создаваемому пользователями каталогу ссылок на торрент-файлы, которые содержат только списки хеш-сумм

[Профиль] [ЛС]
Показать сообщения:    
Ответить на тему

Текущее время: Сегодня 02:27

Часовой пояс: GMT + 4



Вы не можете начинать темы
Вы не можете отвечать на сообщения
Вы не можете редактировать свои сообщения
Вы не можете удалять свои сообщения
Вы не можете голосовать в опросах
Вы не можете прикреплять файлы к сообщениям
Вы не можете скачивать файлы