Черная сутана / Black Robe (Брюс Бересфорд / Bruce Beresford) [1991, Канада, Австралия, США, драма, приключения, BDRip 1080p] AVO (В. Горчаков) + Original Eng

Ответить на тему
 
Автор Сообщение

user ®

Стаж: 7 лет 7 месяцев

Сообщений: 20008

Пост Пост: #1 от 19-Апр-2014 20:00

[Цитировать]

Черная сутана / Black Robe
Страна: Канада, Австралия, США
Жанр: драма, приключения
Год выпуска: 1991
Продолжительность: 01:36:20
Перевод: Авторский (одноголосый закадровый) [Василий Горчаков]
Cубтитры: нет
Оригинальная аудиодорожка: английский
Режиссер: Брюс Бересфорд / Bruce Beresford
В ролях: Лотер Блюто, Аден Янг, Сандрин Холт, Аугуст Шелленберг, Танту Кардинал, Билли Ту Риверз, Лоуренс Бэйн, Харрисон Лью, Уэсли Коте, Фрэнк Уилсон
Описание: Действие происходит в XVII столетии в Новом Свете. Отец Лафорг — священник, которого Шамплен, основатель и губернатор Квебека, посылает в пограничную зону, чтобы обращать индейцев племени гуронов в истинную веру. Поклявшись быть проводником и защитником Лафорга, в путь отправляется и вождь алгонкинов Хомина, взявший с собой жену, юного сына и очень красивую дочь Аннуку, еще не достигшую совершеннолетия. Их также сопровождают несколько его воинов со своими семьями. Побуждаемый в равной степени страстью к Аннуке и стремлением служить Господу, к компании присоединяется молодой французский поселенец Даниэль. Вместе они отправляются в путешествие, в котором никого из них не ждет ничего хорошего...
Доп. информация: Видео-файл найден в сети. По битрейту тянет только на статус "временная", но есть, что есть.
Сэмпл: http://rusfolder.com/40475972
Тип релиза: BDRip 1080p
Контейнер: MKV
Видео: MPEG4 Video (H264) 1920x1036 25fps 9298 Kbps
Аудио: русский, Dolby AC3 48000Hz stereo 192kbps
Аудио 2: английский, Dolby AC3 48000Hz stereo 448kbps

MediaInfo

General
Complete name : Black Robe-rus.mkv
Format : Matroska
File size : 6.68 GiB
Duration : 1h 36mn
Overall bit rate : 9 933 Kbps
Encoded date : UTC 2014-04-19 05:34:31
Writing application : mkvmerge v5.1.0 ('And so it goes') built on Nov 28 2011 23:58:28
Writing library : libebml v1.2.3 + libmatroska v1.3.0
Video
ID : 1
Format : AVC
Format/Info : Advanced Video Codec
Format profile : High@L4.1
Format settings, CABAC : Yes
Format settings, ReFrames : 4 frames
Format settings, GOP : M=4, N=6
Muxing mode : Container profile=Unknown@4.1
Codec ID : V_MPEG4/ISO/AVC
Duration : 1h 36mn
Bit rate : 9 298 Kbps
Width : 1 920 pixels
Height : 1 036 pixels
Display aspect ratio : 1.853
Frame rate : 25.000 fps
Color space : YUV
Chroma subsampling : 4:2:0
Bit depth : 8 bits
Scan type : Progressive
Bits/(Pixel*Frame) : 0.187
Stream size : 6.12 GiB (92%)
Writing library : x264 core 129 r2245 bc13772
Encoding settings : cabac=1 / ref=4 / deblock=1:0:0 / analyse=0x3:0x133 / me=umh / subme=8 / psy=1 / psy_rd=1.00:0.00 / mixed_ref=1 / me_range=16 / chroma_me=1 / trellis=1 / 8x8dct=1 / cqm=0 / deadzone=21,11 / fast_pskip=0 / chroma_qp_offset=-2 / threads=12 / lookahead_threads=2 / sliced_threads=0 / nr=0 / decimate=1 / interlaced=0 / bluray_compat=0 / constrained_intra=0 / bframes=3 / b_pyramid=2 / b_adapt=1 / b_bias=0 / direct=1 / weightb=1 / open_gop=0 / weightp=2 / keyint=300 / keyint_min=25 / scenecut=40 / intra_refresh=0 / rc_lookahead=40 / rc=2pass / mbtree=1 / bitrate=9298 / ratetol=1.0 / qcomp=0.60 / qpmin=0 / qpmax=69 / qpstep=4 / cplxblur=20.0 / qblur=0.5 / ip_ratio=1.40 / aq=1:1.00
Language : English
Audio #1
ID : 2
Format : AC-3
Format/Info : Audio Coding 3
Mode extension : CM (complete main)
Codec ID : A_AC3
Duration : 1h 36mn
Bit rate mode : Constant
Bit rate : 192 Kbps
Channel(s) : 2 channels
Channel positions : Front: L R
Sampling rate : 48.0 KHz
Bit depth : 16 bits
Stream size : 132 MiB (2%)
Title : Russia
Language : Russian
Audio #2
ID : 3
Format : AC-3
Format/Info : Audio Coding 3
Mode extension : CM (complete main)
Codec ID : A_AC3
Duration : 1h 36mn
Bit rate mode : Constant
Bit rate : 448 Kbps
Channel(s) : 2 channels
Channel positions : Front: L R
Sampling rate : 48.0 KHz
Bit depth : 16 bits
Stream size : 309 MiB (5%)
Title : English
Language : English

Скриншоты

Скачать

Скачать торрент!

Как скачивать? · Что такое торрент? · Рейтинг и ограничения

Сайт не распространяет и не хранит электронные версии произведений, а лишь предоставляет доступ к создаваемому пользователями каталогу ссылок на торрент-файлы, которые содержат только списки хеш-сумм

[Профиль] [ЛС]
Показать сообщения:    
Ответить на тему

Текущее время: Сегодня 20:21

Часовой пояс: GMT + 4



Вы не можете начинать темы
Вы не можете отвечать на сообщения
Вы не можете редактировать свои сообщения
Вы не можете удалять свои сообщения
Вы не можете голосовать в опросах
Вы не можете прикреплять файлы к сообщениям
Вы не можете скачивать файлы