Прошлым летом в Чулимске (Виктор Демент) [2014, Мелодрама, SATRip]

Ответить на тему
 
Автор Сообщение

user ®

Стаж: 7 лет 7 месяцев

Сообщений: 20008

Пост Пост: #1 от 19-Апр-2014 20:00

[Цитировать]

Прошлым летом в Чулимске
Жанр: Мелодрама
Год выпуска: 2014
Продолжительность: 01:25:35
Режиссёр: Виктор Демент
В ролях: Сергей Безруков, Мария Поезжаева, Анна Невская, Маргарита Шубина, Александр Самойленко
Описание: Валентина работает в местной чайной. Она влюблена в следователя Шаманова, сбежавшего из большого города после того, как попытался посадить за решётку сына высокопоставленного чиновника, сбившего человека, но потерпел поражение. Здесь Шаманов мечтает лишь о спокойной пенсии, не замечая, что Валентина влюблена в него. Её, в свою очередь, добиваются сын буфетчицы Павел и бухгалтер Мечеткин.
Сэмпл: http://multi-up.com/968038
Качество видео: SATRip
Формат видео: AVI
Видео: XviD, 2160 Кбит/с, 720x400, 25,000 кадров/сек
Аудио: MP3, 2 ch, 128 Кбит/с, 48,0 КГц

MediaInfo

I:\Прошлым летом в Чулимске\Proshlym.letom.v.Chulimske.2014.SATRip.avi
General
Complete name : I:\Прошлым летом в Чулимске\Proshlym.letom.v.Chulimske.2014.SATRip.avi
Format : AVI
Format/Info : Audio Video Interleave
File size : 1.38 GiB
Duration : 1h 25mn
Overall bit rate : 2 303 Kbps
Writing application : VirtualDubMod 1.5.10.3 | www.virtualdub-fr.org || (build 2550/release)
Writing library : VirtualDub build 35491/release
Video #0
ID : 0
Format : MPEG-4 Visual
Format profile : Advanced Simple@L5
Format settings, BVOP : 2
Format settings, QPel : No
Format settings, GMC : No warppoints
Format settings, Matrix : Default (H.263)
Codec ID : XVID
Codec ID/Hint : XviD
Duration : 1h 25mn
Bit rate : 2 165 Kbps
Width : 720 pixels
Height : 400 pixels
Display aspect ratio : 16:9
Frame rate : 25.000 fps
Color space : YUV
Chroma subsampling : 4:2:0
Bit depth : 8 bits
Scan type : Progressive
Compression mode : Lossy
Bits/(Pixel*Frame) : 0.301
Stream size : 1.29 GiB (94%)
Writing library : XviD 1.2.1 (UTC 2008-12-04)
Audio #1
ID : 1
Format : MPEG Audio
Format version : Version 1
Format profile : Layer 3
Mode : Joint stereo
Mode extension : MS Stereo
Codec ID : 55
Codec ID/Hint : MP3
Duration : 1h 25mn
Bit rate mode : Constant
Bit rate : 128 Kbps
Channel count : 2 channels
Sampling rate : 48.0 KHz
Compression mode : Lossy
Stream size : 78.4 MiB (6%)
Alignment : Aligned on interleaves
Interleave, duration : 40 ms (1.00 video frame)
Interleave, preload duration : 504 ms
Writing library : LAME3.99r
Encoding settings : -m j -V 4 -q 9 -lowpass 17 -b 128

Скриншот c названием фильма

Скриншоты

Скачать

Скачать торрент!

Как скачивать? · Что такое торрент? · Рейтинг и ограничения

Сайт не распространяет и не хранит электронные версии произведений, а лишь предоставляет доступ к создаваемому пользователями каталогу ссылок на торрент-файлы, которые содержат только списки хеш-сумм

[Профиль] [ЛС]
Показать сообщения:    
Ответить на тему

Текущее время: Сегодня 15:37

Часовой пояс: GMT + 4



Вы не можете начинать темы
Вы не можете отвечать на сообщения
Вы не можете редактировать свои сообщения
Вы не можете удалять свои сообщения
Вы не можете голосовать в опросах
Вы не можете прикреплять файлы к сообщениям
Вы не можете скачивать файлы