Лего: Приключения Клатча Пауэрса / Lego: The Adventures of Clutch Powers (Ховард Э. Бэйкер / Howard E. Baker) [2010, мультфильм, приключения, семейный, WEB-DLRip] Dub

Ответить на тему
 
Автор Сообщение

user ®

Стаж: 11 лет

Сообщений: 15145

Пост Пост: #1 от 19-Апр-2014 16:50

[Цитировать]

Лего: Приключения Клатча Пауэрса / Lego: The Adventures of Clutch Powers- Страна: США
Жанр: мультфильм, приключения, семейный
Год выпуска: 2010
Продолжительность: 01:21:37
Перевод: Профессиональный (полное дублирование)
Субтитры: Нет-Режиссер: Ховард Э. Бэйкер / Howard E. Baker-Роли озвучивали: Райан МакПартлин (Clutch Powers, озвучка), Ивонн Страховски (Peg Mooring, озвучка), Пол Майкл Глейзер (Kjeld Playwell, озвучка), Роджер Роуз (Brick Masterson, озвучка), Джефф Беннетт (Bernie von Beam, Artie Fol, озвучка), Грегг Бергер (Watch Commander, Rock Powers, озвучка), Стефан Кокс (Mallock the Malign, озвучка), Алекс Десерт (Skelly, озвучка), Крис Хардвик (Bones, озвучка), Крис Эмерсон (Prince Varen, озвучка), Ричард Дойл (Hogar the Troll, озвучка), Джон Ди Кроста (Lofar the Dwarf, озвучка)-Роли дублировали: Алексей Мясников (Clutch Powers), Наталья Грачева (Peg Mooring), Владимир Герасимов (Kjeld Playwell), Александр Новиков (Brick Masterson), Михаил Тихонов (Bernie von Beam)-Описание: Познакомьтесь с Клатчем Пауэрсом, лучшим строителем и исследователем во Вселенной LEGO, выполняющим самую опасную миссию в жизни. Удивительные приключения приводят Клатча и его команду экспертов LEGO из Города LEGO на планету-тюрьму Космической Полиции, где они переносятся в средневековый мир Ашлар.
Они должны помочь законному наследнику королевского трона найти мужество отвоевать свое королевство у злого волшебника Мэллока Малина. Способности героев к конструированию подвергнутся серьезному испытанию в битве с армией скелетов Мэллока.
-Рейтинг:
-Мировая премьера: 4 марта 2010
Релиз на DVD: 10 марта 2010, «Юниверсал Пикчерс Рус»--Семпл-Качество: WEB-DLRip
Формат: AVI
Видео: 656x368 (1.78:1), 23.976 fps, XviD build 65 ~1137 kbps avg, 0.20 bit/pixel
Аудио: 48 kHz, MPEG Layer 3, 2 ch, ~128.00 kbps avg
Субтитры: Отсутствуют
-

MI

Format : AVIFormat/Info : Audio Video InterleaveFile size : 745 MiBDuration : 1h 21mnOverall bit rate : 1 275 KbpsWriting application : VirtualDubMod 1.5.10.3 | www.virtualdub-fr.org || (build 2550/release)Writing library : VirtualDubMod build 2550/release
VideoID : 0Format : MPEG-4 VisualFormat profile : Advanced Simple@L5Format settings, BVOP : 2Format settings, QPel : NoFormat settings, GMC : No warppointsFormat settings, Matrix : CustomCodec ID : XVIDCodec ID/Hint : XviDDuration : 1h 21mnBit rate : 1 138 KbpsWidth : 656 pixelsHeight : 368 pixelsDisplay aspect ratio : 16:9Frame rate : 23.976 fpsColor space : YUVChroma subsampling : 4:2:0Bit depth : 8 bitsScan type : ProgressiveCompression mode : LossyBits/(Pixel*Frame) : 0.197Stream size : 665 MiB (89%)Writing library : XviD 65
AudioID : 1Format : MPEG AudioFormat version : Version 1Format profile : Layer 3Codec ID : 55Codec ID/Hint : MP3Duration : 1h 21mnBit rate mode : ConstantBit rate : 128 KbpsChannel(s) : 2 channelsSampling rate : 48.0 KHzCompression mode : LossyStream size : 74.7 MiB (10%)Alignment : Aligned on interleavesInterleave, duration : 42 ms (1.00 video frame)Interleave, preload duration : 504 msWriting library : LAME3.99rEncoding settings : -m s -V 4 -q 2 -lowpass 17 -b 128
Скачать

Скачать торрент! Лего: Приключения Клатча Пауэрса / Lego: The Adventures of Clutch Powers (Ховард Э. Бэйкер / Howard E. Baker) [2010, мультфильм, приключения, семейный, WEB-DLRip] Dub

Как скачивать? · Что такое торрент? · Рейтинг и ограничения

Сайт не распространяет и не хранит электронные версии произведений, а лишь предоставляет доступ к создаваемому пользователями каталогу ссылок на торрент-файлы, которые содержат только списки хеш-сумм

[Профиль] [ЛС]
Показать сообщения:    
Ответить на тему

Текущее время: Сегодня 18:55

Часовой пояс: GMT + 4



Вы не можете начинать темы
Вы не можете отвечать на сообщения
Вы не можете редактировать свои сообщения
Вы не можете удалять свои сообщения
Вы не можете голосовать в опросах
Вы не можете прикреплять файлы к сообщениям
Вы не можете скачивать файлы