Совместная поездка / Ride Along (Тим Стори / Tim Story) [2014, США, Боевик, комедия, BDRip-AVC] DVO (Пиратская Студия) + Sub Eng + Original Eng

Ответить на тему
 
Автор Сообщение

user ®

Стаж: 7 лет 7 месяцев

Сообщений: 20008

Пост Пост: #1 от 19-Апр-2014 16:50

[Цитировать]

Совместная поездка / Ride Along
Страна: США
Жанр: Боевик, комедия
Год выпуска: 2014
Продолжительность: 01:39:39
Перевод: Любительский (двухголосый закадровый) Пиратская Студия
Cубтитры: английские
Оригинальная аудиодорожка: английский
Режиссер: Тим Стори / Tim Story
В ролях: Кевин Харт, Айс Кьюб, Джон Легуизэмо, Брюс Макгилл, Тика Самптер, Брайан Коллен, Лоренс Фишбёрн, Драгош Букур, Эрик Бенсон, Джей Фэро
Описание: В жизни Бена Барбера все отлично: он работает охранником, играет в компьютерные игры, всегда сохраняет оптимистичный настрой и встречается с красоткой Анджелой, на которой намерен жениться. Проблема в его жизни только одна: помимо него в жизни Анджелы есть еще один важный мужчина – ее брат Джеймс, который ревностно охраняет честь сестры и отдавать ее замуж непонятно за кого не собирается. Увы, Бен для Джеймса – именно что непонятно кто, и даже просьба Анджелы поладить с ним и не судить строго не особенно его убеждают. Ведь Джеймс – не какой-то там придурковатый охранник, а самый настоящий крутой коп, работающий в полицейском управлении Атланты и ведущий серьезные расследования. Впрочем, этим двоим предстоит преодолеть разногласия и научиться работать в команде, причем не только ради счастья Анджелы. Дело в том, что Бен увязался с Джеймсом в патруль по улицам Атланты, и во время работы они натыкаются на улики, благодаря которым Джеймс может наконец завершить расследование, над которым трудится вот уже три года.

Сэмпл: http://multi-up.com/967063
Качество видео: BDRip-AVC [ Ride Along 2014 1080p Blu-ray AVC DTS-HD MA 5.1-LAZERS]
Формат видео: MKV
Видео: MPEG-4 AVC, 2273 Кбит/с, 1024x426, 23.976 кадр/с
Аудио 1: Русский (AC3, 6 ch, 384 Кбит/с) / Профессиональный двухголосый (Пиратская Студия)
Аудио 2: Английский (AC3, 6 ch, 448 Кбит/с)

MediaInfo

Format : Matroska
Format version : Version 4 / Version 2
File size : 2.16 GiB
Duration : 1h 39mn
Overall bit rate : 3 107 Kbps
Movie name : -=MediaClub - Odessit=-
Encoded date : UTC 2014-04-14 15:23:40
Writing application : mkvmerge v6.8.0 ('Theme for Great Cities') 64bit built on Mar 2 2014 21:34:26
Writing library : libebml v1.3.0 + libmatroska v1.4.1
Video
ID : 1
Format : AVC
Format/Info : Advanced Video Codec
Format profile : High@L4.1
Format settings, CABAC : Yes
Format settings, ReFrames : 10 frames
Codec ID : V_MPEG4/ISO/AVC
Duration : 1h 39mn
Bit rate : 2 273 Kbps
Width : 1 024 pixels
Height : 426 pixels
Display aspect ratio : 2.40:1
Frame rate : 23.976 fps
Color space : YUV
Chroma subsampling : 4:2:0
Bit depth : 8 bits
Scan type : Progressive
Bits/(Pixel*Frame) : 0.217
Stream size : 1.54 GiB (71%)
Writing library : x264 core 142 r2409+42 04be48a tMod [8-bit@all X86_64]
Encoding settings : cabac=1 / ref=10 / deblock=1:-3:-3 / analyse=0x3:0x113 / me=umh / subme=11 / psy=1 / fade_compensate=0.00 / psy_rd=1.00:0.20 / mixed_ref=1 / me_range=64 / chroma_me=1 / trellis=2 / 8x8dct=1 / cqm=0 / deadzone=21,11 / fast_pskip=0 / chroma_qp_offset=-3 / threads=6 / lookahead_threads=1 / sliced_threads=0 / nr=0 / decimate=0 / interlaced=0 / bluray_compat=0 / constrained_intra=0 / fgo=0 / bframes=10 / b_pyramid=2 / b_adapt=2 / b_bias=0 / direct=3 / weightb=1 / open_gop=0 / weightp=2 / keyint=240 / keyint_min=23 / scenecut=40 / intra_refresh=0 / rc=2pass / mbtree=0 / bitrate=2273 / ratetol=1.0 / qcomp=0.60 / qpmin=0:0:0 / qpmax=69:69:69 / qpstep=4 / cplxblur=20.0 / qblur=0.5 / ip_ratio=1.40 / pb_ratio=1.30 / aq=2:0.80 / aq-sensitivity=10.00 / aq-factor=1.00:1.00:1.00 / aq2=0 / aq3=0
Language : English
Audio #1
ID : 2
Format : AC-3
Format/Info : Audio Coding 3
Mode extension : CM (complete main)
Codec ID : A_AC3
Duration : 1h 39mn
Bit rate mode : Constant
Bit rate : 384 Kbps
Channel(s) : 6 channels
Channel positions : Front: L C R, Side: L R, LFE
Sampling rate : 48.0 KHz
Bit depth : 16 bits
Compression mode : Lossy
Stream size : 274 MiB (12%)
Title : Профессиональный двухголосый (Пиратская Студия)
Language : Russian
Audio #2
ID : 3
Format : AC-3
Format/Info : Audio Coding 3
Mode extension : CM (complete main)
Codec ID : A_AC3
Duration : 1h 39mn
Bit rate mode : Constant
Bit rate : 448 Kbps
Channel(s) : 6 channels
Channel positions : Front: L C R, Side: L R, LFE
Sampling rate : 48.0 KHz
Bit depth : 16 bits
Compression mode : Lossy
Stream size : 319 MiB (14%)
Language : English
Text
ID : 4
Format : UTF-8
Codec ID : S_TEXT/UTF8
Codec ID/Info : UTF-8 Plain Text
Title : SDH
Language : English
Menu
00:00:00.000 : en:Chapter 1
00:05:09.393 : en:Chapter 2
00:10:37.596 : en:Chapter 3
00:14:41.131 : en:Chapter 4
00:19:46.644 : en:Chapter 5
00:25:03.628 : en:Chapter 6
00:31:16.959 : en:Chapter 7
00:35:46.603 : en:Chapter 8
00:40:51.867 : en:Chapter 9
00:44:31.294 : en:Chapter 10
00:50:40.371 : en:Chapter 11
00:54:50.204 : en:Chapter 12
01:00:01.140 : en:Chapter 13
01:06:13.345 : en:Chapter 14
01:11:47.512 : en:Chapter 15
01:18:44.762 : en:Chapter 16
01:22:53.803 : en:Chapter 17
01:26:28.183 : en:Chapter 18
01:30:09.488 : en:Chapter 19
01:35:27.556 : en:Chapter 20

Скриншот c названием фильма

Скриншоты

Скачать

Скачать торрент!

Как скачивать? · Что такое торрент? · Рейтинг и ограничения

Сайт не распространяет и не хранит электронные версии произведений, а лишь предоставляет доступ к создаваемому пользователями каталогу ссылок на торрент-файлы, которые содержат только списки хеш-сумм

[Профиль] [ЛС]
Показать сообщения:    
Ответить на тему

Текущее время: Сегодня 16:18

Часовой пояс: GMT + 4



Вы не можете начинать темы
Вы не можете отвечать на сообщения
Вы не можете редактировать свои сообщения
Вы не можете удалять свои сообщения
Вы не можете голосовать в опросах
Вы не можете прикреплять файлы к сообщениям
Вы не можете скачивать файлы