13 грехов / 13 Sins (Даниэль Штамм / Daniel Stamm) [2014, США, триллер, ужасы, WEB-DLRip] VO

Ответить на тему
 
Автор Сообщение

user ®

Стаж: 7 лет 7 месяцев

Сообщений: 20008

Пост Пост: #1 от 18-Апр-2014 11:40

[Цитировать]

13 грехов / 13 Sins
Страна: США
Жанр: триллер, ужасы
Год выпуска: 2014
Продолжительность: 01:32:31
Перевод: Одноголосый закадровый [R.A.I.M] перевод на русский язык [lumez]
Cубтитры: нет
Оригинальная аудиодорожка: нет
Режиссер: Даниэль Штамм / Daniel Stamm
В ролях: Марк Веббер, Рутина Уэсли, Девон Грайе, Прюитт Тэйлор Винс, Том Бауэр, Рон Перлман, Клайд Джонс, Денин Тайлер, Грег Пирсон, Ричи Монтгомери
Описание: Эллиот Бриндл — умный кроткий сотрудник службы социального обеспечения, тонущий в долгах. Но все меняется, когда раздается телефонный звонок. На том конце провода ему сообщают, что он становится участником тв-шоу, условия простые — выполнить 13 заданий, какими бы странными они не были; приз — деньги, которые копятся с каждым выполненным заданием. Отказ от выполнения или провал задания ведет к обнулению банка.Деньги можно забрать только выполнив все 13 заданий ведущего. Эллиот следует первым инструкциям и с легкостью съедает пойманную муху. На счету Бриндла появляются первые легкие деньги. Эллиот хочет, но не может прекратить игру, чтобы не потерять «заработанное», хотя задачи становятся более изощренными и опасными, а точка невозврата вот-вот будет пройдена.
Сэмпл: http://multi-up.com/967628
Качество видео: WEB-DLRip
Формат видео: AVI
Видео: Video: 720x304 (2.37:1), 23.976 fps, XviD MPEG-4 ~1895 kbps avg, 0.36 bit/pixel
Аудио: Audio: 48 kHz, AC3 Dolby Digital, 3/2 (L,C,R,l,r) + LFE ch, ~384.00 kbps avg

MediaInfo

Общее
Полное имя : E:\13.grehov.2014.WEBDLRip.avi
Формат : AVI
Формат/Информация : Audio Video Interleave
Размер файла : 1,48 Гбайт
Продолжительность : 1 ч. 32 м.
Общий поток : 2287 Кбит/сек
Видео
Идентификатор : 0
Формат : MPEG-4 Visual
Профиль формата : Advanced Simple@L5
Параметр BVOP формата : 2
Параметр QPel формата : Нет
Параметр GMC формата : Без точки перехода
Параметр матрицы формата : Default (H.263)
Идентификатор кодека : XVID
Идентификатор кодека/Подсказка : XviD
Продолжительность : 1 ч. 32 м.
Битрейт : 1895 Кбит/сек
Ширина : 720 пикселей
Высота : 304 пикселя
Соотношение сторон : 2,35:1
Частота кадров : 23,976 кадра/сек
Цветовое пространство : YUV
Субдискретизация насыщенности : 4:2:0
Битовая глубина : 8 бит
Тип развёртки : Прогрессивная
Метод сжатия : С потерями
Бит/(Пиксели*Кадры) : 0.361
Размер потока : 1,22 Гбайт (83%)
Библиотека кодирования : XviD 64
Аудио
Идентификатор : 1
Формат : AC-3
Формат/Информация : Audio Coding 3
Расширение режима : CM (complete main)
Параметр Endianness формата : Big
Идентификатор кодека : 2000
Продолжительность : 1 ч. 32 м.
Вид битрейта : Постоянный
Битрейт : 384 Кбит/сек
Каналы : 6 каналов
Расположение каналов : Front: L C R, Side: L R, LFE
Частота : 48,0 КГц
Битовая глубина : 16 бит
Метод сжатия : С потерями
Размер потока : 254 Мбайт (17%)
Выравнивание : Соединение по промежуткам
Продолжительность промежутка : 64 мс. (1,53 видеокадра)
Время предзагрузки промежутка : 192 мс.

Скриншоты

Скачать

Скачать торрент!

Как скачивать? · Что такое торрент? · Рейтинг и ограничения

Сайт не распространяет и не хранит электронные версии произведений, а лишь предоставляет доступ к создаваемому пользователями каталогу ссылок на торрент-файлы, которые содержат только списки хеш-сумм

[Профиль] [ЛС]
Показать сообщения:    
Ответить на тему

Текущее время: Сегодня 11:55

Часовой пояс: GMT + 4



Вы не можете начинать темы
Вы не можете отвечать на сообщения
Вы не можете редактировать свои сообщения
Вы не можете удалять свои сообщения
Вы не можете голосовать в опросах
Вы не можете прикреплять файлы к сообщениям
Вы не можете скачивать файлы