Кудряшка Сью / Curly Sue (Джон Хьюз / John Hughes) [1991, США, семейный, комедия, мелодрама, WEB-DL 720p] Dub + 3х MVO + DVO + 2х AVO + VO + Original Eng + Sub Rus

Ответить на тему
 
Автор Сообщение

user ®

Стаж: 7 лет 7 месяцев

Сообщений: 20008

Пост Пост: #1 от 18-Апр-2014 00:20

[Цитировать]

-Кудряшка СьюCurly Sue- -Страна: США
Жанр: семейный, комедия, мелодрама
Год выпуска: 1991
Продолжительность: 01:42:04-Перевод:-1. Профессиональный (полное дублирование - Varus)
2. Профессиональный (многоголосый, закадровый - iTunes Russia)
3. Профессиональный (многоголосый, закадровый)
4. Профессиональный (многоголосый, закадровый - PTP)
5. Профессиональный (двухголосый, закадровый - НТВ)
6. Авторский (одноголосый закадровый) А. Михалёв
7. Авторский (одноголосый закадровый) Ю. Сербин
8. Одноголосый закадровый-Cубтитры: русские
Оригинальная аудиодорожка: английская-Режиссер: Джон Хьюз / John Hughes-В ролях: Джеймс Белуши, Келли Линч, Элисан Портер, Джон Гетз, Фред Далтон Томпсон, Камерон Тор, Брэнском Ричмонд, Стив Карелл, Гэйл Боггс, Бурк Бернс-Описание: Аферист-бродяга (обаятельнейший Белуши) имеет на своем попечении очень сообразительную и живую девочку девяти лет, схватывающую основы его "профессии" очень легко. Вместе они расставляют ловушку для преуспевающей адвокатши и проникают в ее роскошный дом, постепенно завоевывая ее сердце. Шедевральная комедия Режиссёра Джона Хьюза пропитана юмором добротой и теплом. Эдакая рождественская карамель, в обертке от Белуши, срабатывает на все "сто"!!!-Пример: http://yadi.sk/d/g0QfVfQBMaosq-Качество видео: Web-DL 720p
Формат видео: MKV-Видео: 1274х720 (16:9), MPEG-4 AVC, ~ 23.976 fps, 3 943 Kbps, 0.179 Bits/Pixel
Аудио #1: 48 kHz, AC3 Dolby Digital, 2/0 (L,R), ~192.00 kbps avg (Дубляж - Varus)
Аудио #2: 48 kHz, AAC, 2/0 (L,R), ~160.00 kbps avg (Многоголосый закадровый - iTunes Russia)
Аудио #3: 48 kHz, AC3 Dolby Digital, 2/0 (L,R), ~192.00 kbps avg (Многоголосый закадровый)
Аудио #4: 48 kHz, AC3 Dolby Digital, 2/0 (L,R), ~192.00 kbps avg (Многоголосый закадровый - PTP)
Аудио #5: 48 kHz, AC3 Dolby Digital, 2/0 (L,R), ~192.00 kbps avg (Двухголосый закадровый - НТВ)
Аудио #6: 48 kHz, AC3 Dolby Digital, 2/0 (L,R), ~192.00 kbps avg (Одноголосый закадровый - А. Михалев)
Аудио #7: 48 kHz, AC3 Dolby Digital, 2/0 (L,R), ~192.00 kbps avg (Одноголосый закадровый - Ю. Сербин)
Аудио #8: 48 kHz, AC3 Dolby Digital, 2/0 (L,R), ~192.00 kbps avg (Одноголосый закадровый)
Аудио #9: 48 kHz, AAC 2/0 (L,R), ~160.00 kbps avg (Original)
Субтитры: Русские (Forced), Русские (UTF-8)-

MediaInfo

General
Unique ID : 236862246936864122161841390313173483532 (0xB23202688031C482AD893D85AC4D000C)
Format : Matroska
Format version : Version 4 / Version 2
File size : 4.08 GiB
Duration : 1h 42mn
Overall bit rate : 5 721 Kbps
Encoded date : UTC 2014-04-16 10:34:40
Writing application : mkvmerge v6.8.0 ('Theme for Great Cities') 32bit built on Mar 2 2014 21:27:07
Writing library : libebml v1.3.0 + libmatroska v1.4.1
Video
ID : 1
Format : AVC
Format/Info : Advanced Video Codec
Format profile : High@L3.1
Format settings, CABAC : No
Format settings, ReFrames : 2 frames
Format settings, GOP : N=1
Codec ID : V_MPEG4/ISO/AVC
Duration : 1h 42mn
Width : 1 274 pixels
Height : 720 pixels
Display aspect ratio : 16:9
Frame rate mode : Constant
Frame rate : 23.976 fps
Color space : YUV
Chroma subsampling : 4:2:0
Bit depth : 8 bits
Scan type : Progressive
Title : Curly Sue (1991)
Language : English
Default : Yes
Forced : No
Color primaries : BT.709
Transfer characteristics : BT.709
Matrix coefficients : BT.709
Audio #1
ID : 2
Format : AC-3
Format/Info : Audio Coding 3
Mode extension : CM (complete main)
Format settings, Endianness : Big
Codec ID : A_AC3
Duration : 1h 42mn
Bit rate mode : Constant
Bit rate : 192 Kbps
Channel(s) : 2 channels
Channel positions : Front: L R
Sampling rate : 48.0 KHz
Bit depth : 16 bits
Compression mode : Lossy
Stream size : 140 MiB (3%)
Title : Дубляж - Varus
Language : Russian
Default : Yes
Forced : No
Audio #2
ID : 3
Format : AAC
Format/Info : Advanced Audio Codec
Format profile : LC
Codec ID : A_AAC
Duration : 1h 42mn
Channel(s) : 2 channels
Channel positions : Front: L R
Sampling rate : 48.0 KHz
Compression mode : Lossy
Title : Многоголосый закадровый - iTunes Russia
Language : Russian
Default : No
Forced : No
Audio #3
ID : 4
Format : AC-3
Format/Info : Audio Coding 3
Mode extension : CM (complete main)
Format settings, Endianness : Big
Codec ID : A_AC3
Duration : 1h 42mn
Bit rate mode : Constant
Bit rate : 192 Kbps
Channel(s) : 2 channels
Channel positions : Front: L R
Sampling rate : 48.0 KHz
Bit depth : 16 bits
Compression mode : Lossy
Stream size : 140 MiB (3%)
Title : Многоголосый закадровый
Language : Russian
Default : No
Forced : No
Audio #4
ID : 5
Format : AC-3
Format/Info : Audio Coding 3
Mode extension : CM (complete main)
Format settings, Endianness : Big
Codec ID : A_AC3
Duration : 1h 42mn
Bit rate mode : Constant
Bit rate : 192 Kbps
Channel(s) : 2 channels
Channel positions : Front: L R
Sampling rate : 48.0 KHz
Bit depth : 16 bits
Compression mode : Lossy
Stream size : 140 MiB (3%)
Title : Многоголосый закадровый - PTP
Language : Russian
Default : No
Forced : No
Audio #5
ID : 6
Format : AC-3
Format/Info : Audio Coding 3
Mode extension : CM (complete main)
Format settings, Endianness : Big
Codec ID : A_AC3
Duration : 1h 42mn
Bit rate mode : Constant
Bit rate : 192 Kbps
Channel(s) : 2 channels
Channel positions : Front: L R
Sampling rate : 48.0 KHz
Bit depth : 16 bits
Compression mode : Lossy
Stream size : 140 MiB (3%)
Title : Двухголосый закадровый - NTV
Language : Russian
Default : No
Forced : No
Audio #6
ID : 7
Format : AC-3
Format/Info : Audio Coding 3
Mode extension : CM (complete main)
Format settings, Endianness : Big
Codec ID : A_AC3
Duration : 1h 42mn
Bit rate mode : Constant
Bit rate : 192 Kbps
Channel(s) : 2 channels
Channel positions : Front: L R
Sampling rate : 48.0 KHz
Bit depth : 16 bits
Compression mode : Lossy
Stream size : 140 MiB (3%)
Title : Одноголосый закадровый - А. Михалев
Language : Russian
Default : No
Forced : No
Audio #7
ID : 8
Format : AC-3
Format/Info : Audio Coding 3
Mode extension : CM (complete main)
Format settings, Endianness : Big
Codec ID : A_AC3
Duration : 1h 42mn
Bit rate mode : Constant
Bit rate : 192 Kbps
Channel(s) : 2 channels
Channel positions : Front: L R
Sampling rate : 48.0 KHz
Bit depth : 16 bits
Compression mode : Lossy
Stream size : 140 MiB (3%)
Title : Одноголосый закадровый - Ю. Сербин
Language : Russian
Default : No
Forced : No
Audio #8
ID : 9
Format : AC-3
Format/Info : Audio Coding 3
Mode extension : CM (complete main)
Format settings, Endianness : Big
Codec ID : A_AC3
Duration : 1h 42mn
Bit rate mode : Constant
Bit rate : 192 Kbps
Channel(s) : 2 channels
Channel positions : Front: L R
Sampling rate : 48.0 KHz
Bit depth : 16 bits
Compression mode : Lossy
Stream size : 140 MiB (3%)
Title : Одноголосый закадровый - Somebody
Language : Russian
Default : No
Forced : No
Audio #9
ID : 10
Format : AAC
Format/Info : Advanced Audio Codec
Format profile : LC
Codec ID : A_AAC
Duration : 1h 42mn
Channel(s) : 2 channels
Channel positions : Front: L R
Sampling rate : 48.0 KHz
Compression mode : Lossy
Title : Original
Language : English
Default : No
Forced : No
Text #1
ID : 11
Format : UTF-8
Codec ID : S_TEXT/UTF8
Codec ID/Info : UTF-8 Plain Text
Title : Forced
Language : Russian
Default : Yes
Forced : No
Text #2
ID : 12
Format : UTF-8
Codec ID : S_TEXT/UTF8
Codec ID/Info : UTF-8 Plain Text
Language : Russian
Default : No
Forced : No
Menu
00:00:00.000 : en:1. Keepsakes (Credits)
00:04:07.000 : en:2. Free Eats; Grey's Grind
00:08:25.000 : en:3. "You Killed My Daddy!"
00:10:58.000 : en:4. Rocky Feller's
00:16:06.000 : en:5. Second Thoughts
00:20:26.000 : en:6. Chow in Church
00:22:30.000 : en:7. Running Into Each Other
00:25:25.000 : en:8. Cleaned and Fed
00:31:28.000 : en:9. Questions and Mementos
00:36:37.000 : en:10. Angel Kisses and Anthems
00:39:59.000 : en:11. Walker Unannounced
00:43:26.000 : en:12. Trina Unannounced; Poker Party
00:47:44.000 : en:13. Grey Confronts Bill
00:53:36.000 : en:14. "Bill'll Take Care of It"
00:56:08.000 : en:15. A Job; a Little Nice
00:59:47.000 : en:16. Sprucing Up
01:03:40.000 : en:17. Playing Dressup?
01:08:24.000 : en:18. Taking Grey Out
01:16:18.000 : en:19. Romance With Music
01:19:33.000 : en:20. Tightened Screws
01:21:42.000 : en:21. The Law Steps In
01:26:50.000 : en:22. Going "Quality of Life"
01:29:32.000 : en:23. Recovering Curly Sue
01:31:31.000 : en:24. Where's Bill?
01:36:31.000 : en:25. Off to School
01:38:12.000 : en:26. End Credits (You Never Know)

Скриншот с названием фильма

Скриншоты

-Торрент перезалит 16.04.2014 года, заменены дорожки № 2 и 9 на ААС.-
Скачать

Скачать торрент!

Как скачивать? · Что такое торрент? · Рейтинг и ограничения

Сайт не распространяет и не хранит электронные версии произведений, а лишь предоставляет доступ к создаваемому пользователями каталогу ссылок на торрент-файлы, которые содержат только списки хеш-сумм

[Профиль] [ЛС]
Показать сообщения:    
Ответить на тему

Текущее время: Сегодня 22:25

Часовой пояс: GMT + 4



Вы не можете начинать темы
Вы не можете отвечать на сообщения
Вы не можете редактировать свои сообщения
Вы не можете удалять свои сообщения
Вы не можете голосовать в опросах
Вы не можете прикреплять файлы к сообщениям
Вы не можете скачивать файлы