Игра Эндера / Ender\'s Game (Гэвин Худ / Gavin Hood) [2013, Фантастика, боевик, приключения, BDRip 720p] AVO (Гаврилов) + AVO (Горчаков) + Original (Eng) + Sub (rus, eng)

Ответить на тему
 
Автор Сообщение

user ®

Стаж: 7 лет 7 месяцев

Сообщений: 20008

Пост Пост: #1 от 18-Апр-2014 00:20

[Цитировать]

Игра Эндера / Ender's Game- Страна: США / Summit Entertainment, Chartoff Productions, Digital Domain, K/O Paper Products, Odd Lot Entert
Жанр: Фантастика, боевик, приключения
Год выпуска: 2013
Продолжительность: 01:53:48-Перевод#1: Авторский (одноголосый закадровый) Гаврилов
Перевод#2: Авторский (одноголосый закадровый) Горчаков
Cубтитры: русские, английские
Формат субтитров: softsub (SRT)
Оригинальная аудиодорожка: английский-Режиссер: Гэвин Худ / Gavin Hood
В ролях: Эйса Баттерфилд, Харрисон Форд, Бен Кингсли, Виола Дэвис, Хейли Стайнфелд, Эбигейл Бреслин, Арамис Найт, Сурадж Партха, Мойзес Ариас, Кайлин Рамбо
Описание: Действие ленты происходит в 2136 году. Будущее Земли не так радужно, как представлялось оно людям. Инопланетные расы начали постоянно вторгаться на людскую, стараясь уничтожить всё человечество. Элитная школа подготавливает самых крепких ребят для борьбы с инопланетянами. Главный герой ленты один из учеников подросток Эндрю Виггин, которого будет готовить полковник Хайрам Графф и полководец Мэзер Ракхейм изменит судьбу всего человечества. И мир ждет с нетерпением выхода этой кинокартины, ведь в своей основе она содержит одноименный рассказ от Орсона Скотта Карда, у которого уже есть многомиллионная аудитория почитателей. Станет ли кинокартина такая же уникальная и непревзойденная как книга, судить лишь зрителю…-
Релиз от:
Автор рипа: potroks-Качество видео: BDRip 720p
Формат видео: MKV
Видео: x.264, 1280x534 (2,40:1), 23,976 fps, 4210 Кbps, 0.257 bit/pixel
Аудио#1: 48 kHz, AC3 Dolby Digital, 3/2 (L,C,R,l,r) + LFE ch, 640.00 kbps | Гаврилов
Аудио#2: 48 kHz, AC3 Dolby Digital, 3/2 (L,C,R,l,r) + LFE ch, 640.00 kbps | Горчаков
Аудио#3: 48 kHz, AC3 Dolby Digital, 3/2 (L,C,R,l,r) + LFE ch, 640.00 kbps | ENG

log@x.264

x264 [info]: frame I:1818 Avg QP:12.51 size:110402
x264 [info]: frame P:33671 Avg QP:15.22 size: 42826
x264 [info]: frame B:128238 Avg QP:16.38 size: 15208
x264 [info]: consecutive B-frames: 2.4% 2.2% 6.6% 17.0% 16.9% 37.9% 6.2% 2.4% 2.8% 1.9% 3.6%
x264 [info]: mb I I16..4: 6.5% 74.7% 18.8%
x264 [info]: mb P I16..4: 1.1% 12.9% 1.9% P16..4: 25.1% 33.4% 15.3% 3.3% 0.4% skip: 6.7%
x264 [info]: mb B I16..4: 0.2% 1.5% 0.2% B16..8: 31.1% 25.0% 5.5% direct: 6.6% skip:30.0% L0:45.2% L1:40.1% BI:14.7%
x264 [info]: 8x8 transform intra:79.5% inter:50.3%
x264 [info]: direct mvs spatial:96.2% temporal:3.8%
x264 [info]: coded y,uvDC,uvAC intra: 88.5% 90.8% 79.9% inter: 27.4% 33.0% 20.9%
x264 [info]: i16 v,h,dc,p: 38% 10% 5% 46%
x264 [info]: i8 v,h,dc,ddl,ddr,vr,hd,vl,hu: 11% 9% 8% 10% 13% 12% 13% 11% 14%
x264 [info]: i4 v,h,dc,ddl,ddr,vr,hd,vl,hu: 13% 9% 7% 8% 15% 12% 13% 10% 13%
x264 [info]: i8c dc,h,v,p: 48% 21% 14% 18%
x264 [info]: Weighted P-Frames: Y:4.6% UV:2.2%
x264 [info]: ref P L0: 49.1% 7.8% 16.7% 8.3% 6.0% 4.5% 3.6% 2.2% 1.6% 0.2% 0.0%
x264 [info]: ref B L0: 65.9% 16.4% 7.5% 4.1% 2.8% 2.0% 1.0% 0.3%
x264 [info]: ref B L1: 91.2% 8.8%
x264 [info]: kb/s:4209.11

MediaInfo

Общее
Уникальный идентификатор : 195684949422587633297794053385724168019 (0x93378CE56F204718BFFA56976C6D0753)
Полное имя : Igra.Endera.2013.DUAL.BDRip.720p.-HELLYWOOD.mkv
Формат : Matroska
Версия формата : Version 4 / Version 2
Размер файла : 4,87 Гбайт
Продолжительность : 1 ч. 53 м.
Общий поток : 6132 Кбит/сек
Название фильма : HELLYWOOD - rip by potroks
Дата кодирования : UTC 2014-04-16 15:39:33
Программа кодирования : mkvmerge v5.9.0 ('On The Loose') built on Dec 15 2012 16:39:58
Библиотека кодирования : libebml v1.3.0 + libmatroska v1.4.0
Видео
Идентификатор : 1
Формат : AVC
Формат/Информация : Advanced Video Codec
Профиль формата : High@L4.1
Параметр CABAC формата : Да
Параметр ReFrames формата : 9 кадров
Идентификатор кодека : V_MPEG4/ISO/AVC
Продолжительность : 1 ч. 53 м.
Битрейт : 4210 Кбит/сек
Ширина : 1280 пикселей
Высота : 534 пикселя
Соотношение сторон : 2,40:1
Режим частоты кадров : Постоянный
Частота кадров : 23,976 кадра/сек
Цветовое пространство : YUV
Субдискретизация насыщенности : 4:2:0
Битовая глубина : 8 бит
Тип развёртки : Прогрессивная
Бит/(Пиксели*Кадры) : 0.257
Размер потока : 3,25 Гбайт (67%)
Заголовок : Ender's Game
Библиотека кодирования : x264 core 130 r2273 b3065e6
Настройки программы : cabac=1 / ref=9 / deblock=1:-2:-2 / analyse=0x3:0x133 / me=umh / subme=11 / psy=1 / psy_rd=0.99:0.00 / mixed_ref=1 / me_range=32 / chroma_me=1 / trellis=2 / 8x8dct=1 / cqm=0 / deadzone=21,11 / fast_pskip=0 / chroma_qp_offset=-2 / threads=6 / lookahead_threads=1 / sliced_threads=0 / nr=0 / decimate=0 / interlaced=0 / bluray_compat=0 / constrained_intra=0 / bframes=10 / b_pyramid=2 / b_adapt=2 / b_bias=0 / direct=3 / weightb=1 / open_gop=0 / weightp=2 / keyint=250 / keyint_min=23 / scenecut=40 / intra_refresh=0 / rc_lookahead=60 / rc=2pass / mbtree=0 / bitrate=4210 / ratetol=1.0 / qcomp=0.70 / qpmin=0 / qpmax=69 / qpstep=4 / cplxblur=20.0 / qblur=0.5 / vbv_maxrate=50000 / vbv_bufsize=62500 / nal_hrd=none / ip_ratio=1.35 / pb_ratio=1.25 / aq=1:0.70
Язык : English
Default : Да
Forced : Нет
Аудио #1
Идентификатор : 2
Формат : AC-3
Формат/Информация : Audio Coding 3
Расширение режима : CM (complete main)
Параметр Endianness формата : Big
Идентификатор кодека : A_AC3
Продолжительность : 1 ч. 53 м.
Вид битрейта : Постоянный
Битрейт : 640 Кбит/сек
Каналы : 6 каналов
Расположение каналов : Front: L C R, Side: L R, LFE
Частота : 48,0 КГц
Битовая глубина : 16 бит
Метод сжатия : С потерями
Размер потока : 521 Мбайт (10%)
Заголовок : AVO | DD 5.1 @ 640 kbps - Гаврилов
Язык : Russian
Default : Да
Forced : Да
Аудио #2
Идентификатор : 3
Формат : AC-3
Формат/Информация : Audio Coding 3
Расширение режима : CM (complete main)
Параметр Endianness формата : Big
Идентификатор кодека : A_AC3
Продолжительность : 1 ч. 53 м.
Вид битрейта : Постоянный
Битрейт : 640 Кбит/сек
Каналы : 6 каналов
Расположение каналов : Front: L C R, Side: L R, LFE
Частота : 48,0 КГц
Битовая глубина : 16 бит
Метод сжатия : С потерями
Размер потока : 521 Мбайт (10%)
Заголовок : AVO | DD 5.1 @ 640 kbps - Горчаков
Язык : Russian
Default : Нет
Forced : Нет
Аудио #3
Идентификатор : 4
Формат : AC-3
Формат/Информация : Audio Coding 3
Расширение режима : CM (complete main)
Параметр Endianness формата : Big
Идентификатор кодека : A_AC3
Продолжительность : 1 ч. 53 м.
Вид битрейта : Постоянный
Битрейт : 640 Кбит/сек
Каналы : 6 каналов
Расположение каналов : Front: L C R, Side: L R, LFE
Частота : 48,0 КГц
Битовая глубина : 16 бит
Метод сжатия : С потерями
Размер потока : 521 Мбайт (10%)
Заголовок : Original | DD 5.1 @ 640 kbps
Язык : English
Default : Нет
Forced : Нет
Текст #1
Идентификатор : 5
Формат : UTF-8
Идентификатор кодека : S_TEXT/UTF8
Идентификатор кодека/Информация : UTF-8 Plain Text
Язык : Russian
Default : Нет
Forced : Нет
Текст #2
Идентификатор : 6
Формат : UTF-8
Идентификатор кодека : S_TEXT/UTF8
Идентификатор кодека/Информация : UTF-8 Plain Text
Заголовок : Full
Язык : English
Default : Нет
Forced : Нет
Текст #3
Идентификатор : 7
Формат : UTF-8
Идентификатор кодека : S_TEXT/UTF8
Идентификатор кодека/Информация : UTF-8 Plain Text
Заголовок : SDH
Язык : English
Default : Нет
Forced : Нет
Текст #4
Идентификатор : 8
Формат : UTF-8
Идентификатор кодека : S_TEXT/UTF8
Идентификатор кодека/Информация : UTF-8 Plain Text
Заголовок : SDH-Colored
Язык : English
Default : Нет
Forced : Нет
Меню
00:00:00.000 : en:00:00:00.000
00:06:10.579 : en:00:06:10.579
00:14:18.566 : en:00:14:18.566
00:19:06.145 : en:00:19:06.145
00:28:07.144 : en:00:28:07.144
00:33:22.667 : en:00:33:22.667
00:39:34.664 : en:00:39:34.664
00:45:43.407 : en:00:45:43.407
00:53:37.714 : en:00:53:37.714
01:02:15.607 : en:01:02:15.607
01:09:21.949 : en:01:09:21.949
01:15:16.887 : en:01:15:16.887
01:23:38.305 : en:01:23:38.305
01:30:54.824 : en:01:30:54.824
01:35:43.279 : en:01:35:43.279
01:41:12.858 : en:01:41:12.858

Скриншоты

Скачать

Скачать торрент!

Как скачивать? · Что такое торрент? · Рейтинг и ограничения

Сайт не распространяет и не хранит электронные версии произведений, а лишь предоставляет доступ к создаваемому пользователями каталогу ссылок на торрент-файлы, которые содержат только списки хеш-сумм

[Профиль] [ЛС]
Показать сообщения:    
Ответить на тему

Текущее время: Сегодня 22:00

Часовой пояс: GMT + 4



Вы не можете начинать темы
Вы не можете отвечать на сообщения
Вы не можете редактировать свои сообщения
Вы не можете удалять свои сообщения
Вы не можете голосовать в опросах
Вы не можете прикреплять файлы к сообщениям
Вы не можете скачивать файлы