Изгой / The Outsider (Брайан А Миллер / Brian A Miller) [2014, США, боевик, триллер, драма, криминал, детектив, HDRip] DVO (den904 & DeadSno)

Ответить на тему
 
Автор Сообщение

user ®

Стаж: 7 лет 7 месяцев

Сообщений: 20008

Пост Пост: #1 от 18-Апр-2014 00:20

[Цитировать]

Изгой / The Outsider
Страна: США
Жанр: боевик, триллер, драма, криминал, детектив
Год выпуска: 2014
Продолжительность: 01:34:00
Перевод: Любительский (двухголосый закадровый) [den904 & DeadSno]
Cубтитры: нет
Режиссер: Брайан А Миллер / Brian A Miller
В ролях: Джейсон Патрик, Крэйг Фэйрбрасс, Джеймс Каан, Шеннон Элизабет, Бриттни Элгер, Джонни Месснер, Мелисса Ордвэй, Уильям Деври, Брайан А Миллер, Грег Спролс
Описание: Узнав, что его дочь погибла при невыясненных обстоятельствах, профессиональный наемник Лекс Уолкер отправляется в Лос Анджелес, чтобы найти и покарать тех, кто причастен к ее смерти. Горе тем, кто встанет у него на пути..
Доп. информация: перевод на русский язык [Михаил Васильев]Сэмпл: http://multi-up.com/967565
Качество видео: HDRip
Формат видео: AVI
Видео: XVID, 720x304 (2,35:1), 23,976 кадра/сек, 1712 Кбит/сек
Аудио: AC-3, 48,0 КГц, 448 Кбит/сек (6 каналов)

MediaInfo

олное имя : C:\Documents and Settings\Администратор\Мои документы\Downloads\The.Outsider.2014.HDRip.avi
Формат : AVI
Формат/Информация : Audio Video Interleave
Размер файла : 1,42 Гбайт
Продолжительность : 1 ч. 34 м.
Общий поток : 2169 Кбит/сек
Программа кодирования : VirtualDubMod 1.5.10.3 | www.virtualdub-fr.org || (build 2550/release)
Библиотека кодирования : VirtualDubMod build 2550/release
Видео
Идентификатор : 0
Формат : MPEG-4 Visual
Профиль формата : Advanced Simple@L5
Параметр BVOP формата : 1
Параметр QPel формата : Нет
Параметр GMC формата : Без точки перехода
Параметр матрицы формата : Выборочная
Идентификатор кодека : XVID
Идентификатор кодека/Подсказка : XviD
Продолжительность : 1 ч. 34 м.
Битрейт : 1712 Кбит/сек
Ширина : 720 пикселей
Высота : 304 пикселя
Соотношение сторон : 2,35:1
Частота кадров : 23,976 кадра/сек
Цветовое пространство : YUV
Субдискретизация насыщенности : 4:2:0
Битовая глубина : 8 бит
Тип развёртки : Прогрессивная
Метод сжатия : С потерями
Бит/(Пиксели*Кадры) : 0.326
Размер потока : 1,12 Гбайт (79%)
Библиотека кодирования : XviD 73
Аудио
Идентификатор : 1
Формат : AC-3
Формат/Информация : Audio Coding 3
Расширение режима : CM (complete main)
Параметр Endianness формата : Big
Идентификатор кодека : 2000
Продолжительность : 1 ч. 34 м.
Вид битрейта : Постоянный
Битрейт : 448 Кбит/сек
Каналы : 6 каналов
Расположение каналов : Front: L C R, Side: L R, LFE
Частота : 48,0 КГц
Битовая глубина : 16 бит
Метод сжатия : С потерями
Размер потока : 301 Мбайт (21%)
Выравнивание : Разделение по промежуткам
Продолжительность промежутка : 42 мс. (1,00 видеокадр)
Время предзагрузки промежутка : 500 мс.

Скриншот c названием фильма

Скриншоты

Скачать

Скачать торрент!

Как скачивать? · Что такое торрент? · Рейтинг и ограничения

Сайт не распространяет и не хранит электронные версии произведений, а лишь предоставляет доступ к создаваемому пользователями каталогу ссылок на торрент-файлы, которые содержат только списки хеш-сумм

[Профиль] [ЛС]
Показать сообщения:    
Ответить на тему

Текущее время: Сегодня 12:13

Часовой пояс: GMT + 4



Вы не можете начинать темы
Вы не можете отвечать на сообщения
Вы не можете редактировать свои сообщения
Вы не можете удалять свои сообщения
Вы не можете голосовать в опросах
Вы не можете прикреплять файлы к сообщениям
Вы не можете скачивать файлы