Цена убийства / To kill for / Fatal Instinct (Джон Дирлам / John Dirlam) [1992, США, триллер, HDTV 1080i] DVO (НТВ+)

Ответить на тему
 
Автор Сообщение

user ®

Стаж: 7 лет 7 месяцев

Сообщений: 20008

Пост Пост: #1 от 16-Апр-2014 22:20

[Цитировать]

Цена убийства / To kill for / Fatal Instinct
Страна: США
Студия: Moviestore Entertainment
Жанр: триллер
Год выпуска: 1992
Продолжительность: 01:28:34
Перевод: Профессиональный (двухголосый закадровый) НТВ+
Cубтитры: нет
Оригинальная аудиодорожка: нет
Режиссер: Джон Дирлам / John Dirlam
В ролях: Майкл Мэдсен, Лаура Джонсон, Энтони Хэмилтон, Томми Редмонд Хикс, Ричард Форонджи, Джоди Брэдли, Джоэнн Лара,Бэрри Лоус, Робин Джеймисон, Рик Джонсон
Описание: Никогда не влюбляйся в подозреваемую, особенно, если ты — полицейский при исполнении. Этого ли не знать детективу Бердену после двадцати лет службы. На беду, подозреваемой в убийстве оказывается Кэтрин Мэрримс, — красивая и загадочная настолько, что ради нее можно не просто погибнуть. Ради нее можно убить…
II Сэмпл II IMDB II
Тип релиза: HDTV 1080i
Контейнер: TS
Видео: AVC 1920x1080 (16:9) 25.0fps Bit rate 5347Kbps
Аудио: MP2 48000Hz 2ch 192 Kbps dvo

MediaInfo

General
ID : 1
Complete name : E:\torrent\To.Kill.Fo.1992.HDTV1080i.ts
Format : MPEG-TS
File size : 3.61 GiB
Duration : 1h 28mn
Overall bit rate : 5 829 Kbps
Video
ID : 1606 (0x646)
Menu ID : 1 (0x1)
Format : AVC
Format/Info : Advanced Video Codec
Format profile : High@L4.0
Format settings, CABAC : Yes
Format settings, ReFrames : 3 frames
Format settings, GOP : M=1, N=47
Duration : 1h 28mn
Bit rate : 5 347 Kbps
Width : 1 920 pixels
Height : 1 080 pixels
Display aspect ratio : 16:9
Frame rate : 25.000 fps
Standard : Component
Color space : YUV
Chroma subsampling : 4:2:0
Bit depth : 8 bits
Scan type : Interlaced
Scan order : Top Field First
Bits/(Pixel*Frame) : 0.103
Stream size : 3.31 GiB (92%)
Color primaries : BT.709-5, BT.1361, IEC 61966-2-4, SMPTE RP177
Transfer characteristics : BT.709-5, BT.1361
Matrix coefficients : BT.709-5, BT.1361, IEC 61966-2-4 709, SMPTE RP177
Audio
ID : 2606 (0xA2E)
Menu ID : 1 (0x1)
Format : MPEG Audio
Format version : Version 1
Format profile : Layer 2
Duration : 1h 28mn
Bit rate mode : Constant
Bit rate : 192 Kbps
Channel(s) : 2 channels
Sampling rate : 48.0 KHz
Stream size : 122 MiB (3%)
Language : Russian

Скриншот с названием фильма

Скриншоты

Скачать

Скачать торрент!

Как скачивать? · Что такое торрент? · Рейтинг и ограничения

Сайт не распространяет и не хранит электронные версии произведений, а лишь предоставляет доступ к создаваемому пользователями каталогу ссылок на торрент-файлы, которые содержат только списки хеш-сумм

[Профиль] [ЛС]
Показать сообщения:    
Ответить на тему

Текущее время: Сегодня 20:08

Часовой пояс: GMT + 4



Вы не можете начинать темы
Вы не можете отвечать на сообщения
Вы не можете редактировать свои сообщения
Вы не можете удалять свои сообщения
Вы не можете голосовать в опросах
Вы не можете прикреплять файлы к сообщениям
Вы не можете скачивать файлы