Качели (Антон Сиверс) [2008 г., остросюжетная мелодрама, BDRip-AVC]

Ответить на тему
 
Автор Сообщение

user ®

Стаж: 7 лет 7 месяцев

Сообщений: 20008

Пост Пост: #1 от 16-Апр-2014 16:00

[Цитировать]

-Качели--Год выпуска: 2008
Жанр: остросюжетная мелодрама
Продолжительность: 01:30:26--Режиссер: Антон Сиверс--В ролях:
Мария Миронова, Андрей Мерзликин, Ксения Раппопорт, Вячеслав Разбегаев, Борис Хвошнянский, Хельга Филиппова, Максим Бритвенков, Олег Гаркуша, Анатолий Петров, Полина Исаева
--Описание:
Уходя на работу, он не знает, вернётся ли домой. Потому что рисковать жизнью — его профессия. Но иногда смертельное ранение может нанести любовь, потому что любовь, как пуля, бьет прямо в сердце.Вся жизнь героев этой ленты — Качели. То, задыхаясь от любви, они взлетают в облака, то с самого пика наслажденья падают вниз, в грязь и пустоту… Качели раскачиваются всё сильнее, и остановить их они попытаются лишь тогда, когда это почти невозможно.
-Доп. информация:- - Сэмпл Рип НЕ совместим с бытовыми DVD-проигрывателями. --Качество видео: BDRip-AVC
Формат видео: MKV
Видео: 1120x476 (2.35:1), 23.976 fps, XviD build 73 ~2999 kbps avg, 0.235 bit/pixel
Аудио: 48 kHz, AC3 Dolby Digital, 6 ch, 448 kbps-

MediaInfo/Log

Log

x264 [info]: frame I:826 Avg QP:17.05 size: 77532
x264 [info]: frame P:31937 Avg QP:20.80 size: 28403
x264 [info]: frame B:97345 Avg QP:22.33 size: 10922
x264 [info]: consecutive B-frames: 3.7% 5.8% 10.8% 20.3% 16.2% 31.3% 5.3% 1.6% 2.3% 0.8% 0.6% 0.5% 0.3% 0.1% 0.3%
x264 [info]: mb I I16..4: 7.3% 75.2% 17.5%
x264 [info]: mb P I16..4: 1.4% 15.3% 1.8% P16..4: 29.7% 32.2% 11.3% 1.5% 0.1% skip: 6.6%
x264 [info]: mb B I16..4: 0.2% 1.6% 0.2% B16..8: 37.8% 19.7% 3.6% direct: 5.8% skip:31.2% L0:42.7% L1:46.1% BI:11.1%
x264 [info]: 8x8 transform intra:82.0% inter:61.8%
x264 [info]: direct mvs spatial:97.5% temporal:2.5%
x264 [info]: coded y,uvDC,uvAC intra: 80.0% 75.8% 52.2% inter: 31.4% 26.2% 9.0%
x264 [info]: i16 v,h,dc,p: 37% 17% 8% 38%
x264 [info]: i8 v,h,dc,ddl,ddr,vr,hd,vl,hu: 8% 7% 11% 10% 14% 13% 13% 11% 13%
x264 [info]: i4 v,h,dc,ddl,ddr,vr,hd,vl,hu: 13% 7% 10% 8% 14% 13% 13% 10% 12%
x264 [info]: i8c dc,h,v,p: 41% 24% 17% 18%
x264 [info]: Weighted P-Frames: Y:2.6% UV:1.2%
x264 [info]: ref P L0: 47.6% 12.2% 16.6% 6.0% 4.9% 3.4% 3.0% 1.7% 1.6% 1.4% 1.4% 0.3% 0.0%
x264 [info]: ref B L0: 73.8% 11.5% 5.4% 2.8% 2.0% 1.6% 1.3% 0.8% 0.5% 0.2%
x264 [info]: ref B L1: 93.0% 7.0%
x264 [info]: kb/s:2999.14
General
Unique ID : 187452582193218662258609909742926351373 (0x8D060DDACCA16187A2385595EAB4CC0D)
Complete name : \Kacheli_(2008).BDRip-AVC.ac3.[All.Films][RG].mkv
Format : Matroska
Format version : Version 4 / Version 2
File size : 2.18 GiB
Duration : 1h 30mn
Overall bit rate : 3 449 Kbps
Movie name : Качели (2008) BDRip-AVC [All.Films][RG] | []
Encoded date : UTC 2014-04-16 06:46:49
Writing application : mkvmerge v6.1.0 ('Old Devil') built on Mar 4 2013 09:10:42
Writing library : libebml v1.3.0 + libmatroska v1.4.0
Video
ID : 1
Format : AVC
Format/Info : Advanced Video Codec
Format profile : High@L4.1
Format settings, CABAC : Yes
Format settings, ReFrames : 11 frames
Codec ID : V_MPEG4/ISO/AVC
Duration : 1h 30mn
Bit rate : 3 000 Kbps
Width : 1 120 pixels
Height : 476 pixels
Display aspect ratio : 2.35:1
Frame rate mode : Constant
Frame rate : 23.976 fps
Color space : YUV
Chroma subsampling : 4:2:0
Bit depth : 8 bits
Scan type : Progressive
Bits/(Pixel*Frame) : 0.235
Stream size : 1.85 GiB (85%)
Writing library : x264 core 142 r2389kMod 956c8d8
Encoding settings : cabac=1 / ref=11 / deblock=1:-2:-2 / analyse=0x3:0x133 / me=umh / subme=11 / psy=1 / fade_compensate=0.00 / psy_rd=1.05:0.05 / mixed_ref=1 / me_range=38 / chroma_me=1 / trellis=2 / 8x8dct=1 / cqm=0 / deadzone=21,11 / fast_pskip=0 / chroma_qp_offset=-3 / threads=6 / lookahead_threads=1 / sliced_threads=0 / nr=0 / decimate=0 / interlaced=0 / bluray_compat=0 / constrained_intra=0 / fgo=0 / bframes=14 / b_pyramid=2 / b_adapt=2 / b_bias=0 / direct=3 / weightb=1 / open_gop=0 / weightp=2 / keyint=240 / keyint_min=23 / scenecut=40 / intra_refresh=0 / rc_lookahead=60 / rc=2pass / mbtree=0 / bitrate=3000 / ratetol=1.0 / qcomp=0.60 / qpmin=0 / qpmax=69 / qpstep=4 / cplxblur=20.0 / qblur=0.5 / vbv_maxrate=50000 / vbv_bufsize=50000 / nal_hrd=none / filler=0 / ip_ratio=1.40 / pb_ratio=1.30 / aq=1:0.90 / zones=127300,130108,q=35
Default : Yes
Forced : No
Audio
ID : 2
Format : AC-3
Format/Info : Audio Coding 3
Mode extension : CM (complete main)
Format settings, Endianness : Big
Codec ID : A_AC3
Duration : 1h 30mn
Bit rate mode : Constant
Bit rate : 448 Kbps
Channel count : 6 channels
Channel positions : Front: L C R, Side: L R, LFE
Sampling rate : 48.0 KHz
Bit depth : 16 bits
Compression mode : Lossy
Stream size : 290 MiB (13%)
Language : Russian
Default : Yes
Forced : No

Скриншоты



Скачать

Скачать торрент!

Как скачивать? · Что такое торрент? · Рейтинг и ограничения

Сайт не распространяет и не хранит электронные версии произведений, а лишь предоставляет доступ к создаваемому пользователями каталогу ссылок на торрент-файлы, которые содержат только списки хеш-сумм

[Профиль] [ЛС]
Показать сообщения:    
Ответить на тему

Текущее время: Сегодня 02:11

Часовой пояс: GMT + 4



Вы не можете начинать темы
Вы не можете отвечать на сообщения
Вы не можете редактировать свои сообщения
Вы не можете удалять свои сообщения
Вы не можете голосовать в опросах
Вы не можете прикреплять файлы к сообщениям
Вы не можете скачивать файлы