Мистер Пип / Mr. Pip (Эндрю Адамсон / Andrew Ralph Adamson) [2012, Папуа - Новая Гвинея, Австралия, Новая Зеландия, Драма, военный, BDRip 1080p] MVO (Mystery Film) + Sub Rus, Eng + Original Eng

Ответить на тему
 
Автор Сообщение

user ®

Стаж: 7 лет 7 месяцев

Сообщений: 20008

Пост Пост: #1 от 16-Апр-2014 01:25

[Цитировать]


Мистер Пип / Mr. Pip
- Страна: Папуа - Новая Гвинея, Австралия, Новая Зеландия
Жанр: Драма, военный
Год выпуска: 2012
Продолжительность: 01:55:27
Перевод: Любительский (многоголосый закадровый) - Mystery Film в сотрудничестве с COWABUNGA STUDIO
Cубтитры: русские [notabenoid], английские
Перевод субтитров: Fryoylajn, gallina, n_a_u, kyrkela, nedolga, la_sintez
Оригинальная аудиодорожка: английский
- Режиссёр: Эндрю Адамсон / Andrew Ralph Adamson
В ролях: Хью Лори, Экзанья Матси, Хилсвиль Джоэль, Эка Дарвиль, Флоренс Корокоро, Кэрри Фокс и другие.- Действие фильма происходит в 1990-х годах во время гражданской войны на острове Бугенвиль в Папуа-Новой Гвинее. Томас Уоттс - единственный белый человек, оставшийся на блокированном правительственными войсками острове, читает детям в школе роман Чарльза Диккенса "Большие надежды". 14-летняя Матильда погружается в мир романа, находит утешение, вдохновение и надежду, в то время как ее собственный мир рушится на глазах. Правительственная армия, посланная уничтожить местных повстанцев, все ближе к деревне. Матильда пишет на песке слово «Пип». Это простое действие приводит к страшным последствиям.- Тип релиза: BDRip 1080p
Контейнер: MKV
Видео: AVC, 1920x816 [2.35:1], 9 321 Kbps, 23.976 fps
Аудио: AC-3, 2 channels, 48.0 KHz, 192 Kbps [MVO]
Аудио 2: DTS, 6 channels, 48.0 KHz, 1 510 Kbps [ENG]
Формат субтитров: softsub (SRT)

MediaInfo

Format : Matroska
File size : 8.89 GiB
Duration : 1h 55mn
Overall bit rate : 11.0 Mbps
Movie name : Release Group СПАМ
Encoded date : UTC 2014-04-14 16:46:33
Writing application : mkvmerge v6.8.0 ('Theme for Great Cities') 64bit built on Mar 2 2014 21:34:26
Writing library : libebml v1.3.0 libmatroska v1.4.1
Video
ID : 1
Format : AVC
Format/Info : Advanced Video Codec
Format profile : High@L4.1
Format settings, CABAC : Yes
Format settings, ReFrames : 5 frames
Format settings, GOP : M=4, N=28
Codec ID : V_MPEG4/ISO/AVC
Duration : 1h 55mn
Bit rate : 9 321 Kbps
Width : 1 920 pixels
Height : 816 pixels
Display aspect ratio : 2.35:1
Frame rate : 23.976 fps
Color space : YUV
Chroma subsampling : 4:2:0
Bit depth : 8 bits
Scan type : Progressive
Bits/(Pixel*Frame) : 0.248
Stream size : 7.34 GiB (83%)
Title : Release Group СПАМ
Writing library : x264 core 142 r2409 d6b4e63
Encoding settings : cabac=1 / ref=5 / deblock=1:0:0 / analyse=0x3:0x133 / me=umh / subme=8 / psy=1 / psy_rd=1.00:0.00 / mixed_ref=1 / me_range=16 / chroma_me=1 / trellis=1 / 8x8dct=1 / cqm=0 / deadzone=21,11 / fast_pskip=0 / chroma_qp_offset=-2 / threads=12 / lookahead_threads=2 / sliced_threads=0 / nr=0 / decimate=1 / interlaced=0 / bluray_compat=0 / constrained_intra=0 / bframes=3 / b_pyramid=2 / b_adapt=1 / b_bias=0 / direct=1 / weightb=1 / open_gop=0 / weightp=2 / keyint=250 / keyint_min=23 / scenecut=40 / intra_refresh=0 / rc_lookahead=40 / rc=2pass / mbtree=1 / bitrate=9321 / ratetol=1.0 / qcomp=0.60 / qpmin=0 / qpmax=69 / qpstep=4 / cplxblur=20.0 / qblur=0.5 / ip_ratio=1.40 / aq=1:1.00
Language : English
Audio #1
ID : 2
Format : AC-3
Format/Info : Audio Coding 3
Mode extension : CM (complete main)
Codec ID : A_AC3
Duration : 1h 55mn
Bit rate mode : Constant
Bit rate : 192 Kbps
Channel(s) : 2 channels
Channel positions : Front: L R
Sampling rate : 48.0 KHz
Bit depth : 16 bits
Compression mode : Lossy
Stream size : 159 MiB (2%)
Title : Mystery Film
Language : Russian
Audio #2
ID : 3
Format : DTS
Format/Info : Digital Theater Systems
Codec ID : A_DTS
Duration : 1h 55mn
Bit rate mode : Constant
Bit rate : 1 510 Kbps
Channel(s) : 6 channels
Channel positions : Front: L C R, Side: L R, LFE
Sampling rate : 48.0 KHz
Bit depth : 16 bits
Compression mode : Lossy
Stream size : 1.22 GiB (14%)
Language : English
Text #1
ID : 4
Format : UTF-8
Codec ID : S_TEXT/UTF8
Codec ID/Info : UTF-8 Plain Text
Title : notabenoid
Language : Russian
Text #2
ID : 5
Format : UTF-8
Codec ID : S_TEXT/UTF8
Codec ID/Info : UTF-8 Plain Text
Language : English

Скриншоты

Скачать

Скачать торрент!

Как скачивать? · Что такое торрент? · Рейтинг и ограничения

Сайт не распространяет и не хранит электронные версии произведений, а лишь предоставляет доступ к создаваемому пользователями каталогу ссылок на торрент-файлы, которые содержат только списки хеш-сумм

[Профиль] [ЛС]
Показать сообщения:    
Ответить на тему

Текущее время: Сегодня 17:45

Часовой пояс: GMT + 4



Вы не можете начинать темы
Вы не можете отвечать на сообщения
Вы не можете редактировать свои сообщения
Вы не можете удалять свои сообщения
Вы не можете голосовать в опросах
Вы не можете прикреплять файлы к сообщениям
Вы не можете скачивать файлы