Бонни и Клайд / Bonnie & Clyde (Брюс Бересфорд / Bruce Beresford) [2013, Драма, криминал, биография, BDRip 720p] DVO (Jetvis Studio) + Original Eng + Sub Eng

Ответить на тему
 
Автор Сообщение

user ®

Стаж: 7 лет 7 месяцев

Сообщений: 20008

Пост Пост: #1 от 15-Апр-2014 20:45

[Цитировать]

Бонни и Клайд / Bonnie & Clyde
Страна: США
Студия: Sony Pictures Television, Storyline Entertainment, телеканал History.
Жанр: Драма, криминал, биография
Дата выпуска: 2014
Продолжительность: 02:54:07
Перевод: Любительский (двухголосый закадровый) - Jetvis Studio
Оригинальная аудидорожка: английский
Субтитры: английские
Режиссёр: Брюс Бересфорд / Bruce Beresford
В ролях: Холлидей Грейнджер / Holliday Grainger, Эмиль Хирш / Emile Hirsch, Сара Хайланд / Sarah Hyland, Элизабет Ризер / Elizabeth Reaser, Уильям Хёрт / William Hurt, Лэйн Гаррисон / Lane Garrison.
Релиз:
Перевод: notabenoid, исправленный.
Озвучка: Jetvis Studio
Роли озвучивали: Иван Назаров и Анастасия Домнина.
Спонсор: Борис Данченков.
Описание:
Это мини-сериал, показанный в декабре на телеканале History. На Blu-ray был выпущен с парой доп. сцен и в виде полнометражного фильма.
Действие сериала разворачивается в Соединенных Штатах Америки во времена Великой депрессии. Главная героиня — миниатюрная очаровательная девушка по имени Бонни Паркер. У нее за спиной неудачный опыт супружеской жизни, а впереди — беспросветная тоска. Девушка трудится официанткой в отвратительном придорожном кафе. Ее жизнь мрачная и скучная, и нет никакой надежды что-либо изменить. В один прекрасный день Бонни встречает паренька по имени Клайд Бэрроу. Он молод, горяч, красив и невероятно обаятелен. А больше всего героиню привлекают в нем харизматичность и наплевательское отношение к законам и установленным правилам. Клайду плевать на все, он живет по своим собственным понятиям.

MI

Общее
Уникальный идентификатор : 207106475108230615510962098653248905312 (0x9BCF4196E56C9443877378CB43606060)
Полное имя : C:\Торрент\Bonnie.and.Clyde.2013.Jetvis Studio.BDRip.720p.mkv
Формат : Matroska
Версия формата : Version 4 / Version 2
Размер файла : 9,41 Гбайт
Продолжительность : 2 ч. 54 м.
Общий поток : 7734 Кбит/сек
Дата кодирования : UTC 2014-04-11 22:14:36
Программа кодирования : mkvmerge v6.8.0 ('Theme for Great Cities') 64bit built on Mar 2 2014 21:34:26
Библиотека кодирования : libebml v1.3.0 + libmatroska v1.4.1
Видео
Идентификатор : 1
Формат : AVC
Формат/Информация : Advanced Video Codec
Профиль формата : High@L4.1
Параметр CABAC формата : Да
Параметр ReFrames формата : 9 кадров
Идентификатор кодека : V_MPEG4/ISO/AVC
Продолжительность : 2 ч. 54 м.
Битрейт : 6000 Кбит/сек
Ширина : 1280 пикселей
Высота : 720 пикселей
Соотношение сторон : 16:9
Режим частоты кадров : Постоянный
Частота кадров : 23,976 кадра/сек
Цветовое пространство : YUV
Субдискретизация насыщенности : 4:2:0
Битовая глубина : 8 бит
Тип развёртки : Прогрессивная
Бит/(Пиксели*Кадры) : 0.272
Размер потока : 7,15 Гбайт (76%)
Библиотека кодирования : x264 core 133 r2334 a3ac64b
Настройки программы : cabac=1 / ref=9 / deblock=1:-3:-3 / analyse=0x3:0x133 / me=umh / subme=10 / psy=1 / psy_rd=1.00:0.00 / mixed_ref=1 / me_range=48 / chroma_me=1 / trellis=2 / 8x8dct=1 / cqm=0 / deadzone=21,11 / fast_pskip=0 / chroma_qp_offset=-2 / threads=12 / lookahead_threads=1 / sliced_threads=0 / nr=0 / decimate=0 / interlaced=0 / bluray_compat=0 / constrained_intra=0 / bframes=8 / b_pyramid=2 / b_adapt=2 / b_bias=0 / direct=3 / weightb=1 / open_gop=0 / weightp=2 / keyint=360 / keyint_min=2 / scenecut=40 / intra_refresh=0 / rc_lookahead=0 / rc=2pass / mbtree=0 / bitrate=6000 / ratetol=1.0 / qcomp=0.70 / qpmin=0 / qpmax=69 / qpstep=4 / cplxblur=20.0 / qblur=0.5 / vbv_maxrate=50000 / vbv_bufsize=30000 / nal_hrd=none / ip_ratio=1.10 / pb_ratio=1.30 / aq=1:0.80
Default : Да
Forced : Нет
Аудио #1
Идентификатор : 2
Формат : AC-3
Формат/Информация : Audio Coding 3
Расширение режима : CM (complete main)
Параметр Endianness формата : Big
Идентификатор кодека : A_AC3
Продолжительность : 2 ч. 54 м.
Вид битрейта : Постоянный
Битрейт : 192 Кбит/сек
Каналы : 2 канала
Расположение каналов : Front: L R
Частота : 48,0 КГц
Битовая глубина : 16 бит
Метод сжатия : С потерями
Размер потока : 239 Мбайт (2%)
Заголовок : Jetvis Studio
Язык : Russian
Default : Нет
Forced : Нет
Аудио #2
Идентификатор : 3
Формат : DTS
Формат/Информация : Digital Theater Systems
Режим : 16
Параметр Endianness формата : Big
Идентификатор кодека : A_DTS
Продолжительность : 2 ч. 54 м.
Вид битрейта : Постоянный
Битрейт : 1509 Кбит/сек
Каналы : 6 каналов
Расположение каналов : Front: L C R, Side: L R, LFE
Частота : 48,0 КГц
Битовая глубина : 24 бит
Метод сжатия : С потерями
Размер потока : 1,84 Гбайт (20%)
Заголовок : Eng
Язык : English
Default : Нет
Forced : Нет
Текст
Идентификатор : 4
Формат : PGS
Идентификатор кодека : S_HDMV/PGS
Идентификатор кодека/Информация : The same subtitle format used on BDs/HD-DVDs
Заголовок : EngSub
Язык : English
Default : Да
Forced : Нет
Меню
00:00:00.000 : en:00:00:00.000
00:07:12.057 : en:00:07:12.057
00:12:58.736 : en:00:12:58.736
00:18:16.429 : en:00:18:16.429
00:24:21.543 : en:00:24:21.543
00:29:49.788 : en:00:29:49.788
00:33:40.894 : en:00:33:40.894
00:37:35.211 : en:00:37:35.211
00:39:54.350 : en:00:39:54.350
00:44:22.577 : en:00:44:22.577
00:49:29.216 : en:00:49:29.216
00:54:27.931 : en:00:54:27.931
00:59:48.210 : en:00:59:48.210
01:05:24.295 : en:01:05:24.295
01:12:29.887 : en:01:12:29.887
01:18:53.145 : en:01:18:53.145
01:23:17.618 : en:01:23:17.618
01:31:27.691 : en:01:31:27.691
01:35:36.981 : en:01:35:36.981
01:44:47.531 : en:01:44:47.531
01:52:19.858 : en:01:52:19.858
01:59:50.350 : en:01:59:50.350
02:05:13.005 : en:02:05:13.005
02:12:21.225 : en:02:12:21.225
02:16:01.695 : en:02:16:01.695
02:23:14.503 : en:02:23:14.503
02:26:40.000 : en:02:26:40.000
02:32:58.378 : en:02:32:58.378
02:37:17.678 : en:02:37:17.678
02:39:59.632 : en:02:39:59.632
02:45:36.009 : en:02:45:36.009
02:52:03.271 : en:02:52:03.271
Качество видео: BDRip
Формат видео: MKV
Видео: H.264, 1280x720 (16:9), 23.976 fps, ~6000 kbps, ~0.272 bit/pixel
Аудио RUS: 48 kHz, AC3, 2 ch, ~192.00 kbps avg
Аудио ENG: 48 kHz, DTS, 6 ch, ~1509.00 kbps avg

Скриншоты

Скачать

Скачать торрент!

Как скачивать? · Что такое торрент? · Рейтинг и ограничения

Сайт не распространяет и не хранит электронные версии произведений, а лишь предоставляет доступ к создаваемому пользователями каталогу ссылок на торрент-файлы, которые содержат только списки хеш-сумм

[Профиль] [ЛС]
Показать сообщения:    
Ответить на тему

Текущее время: Сегодня 04:17

Часовой пояс: GMT + 4



Вы не можете начинать темы
Вы не можете отвечать на сообщения
Вы не можете редактировать свои сообщения
Вы не можете удалять свои сообщения
Вы не можете голосовать в опросах
Вы не можете прикреплять файлы к сообщениям
Вы не можете скачивать файлы