Клуб безбашенных / The Bang Bang Club (Стивен Сильвер / Steven Silver) [2010, Канада, ЮАР, драма, BDRip 1080p] DVO + Original Eng + Sub (rus, eng)

Ответить на тему
 
Автор Сообщение

user ®

Стаж: 7 лет 7 месяцев

Сообщений: 20008

Пост Пост: #1 от 15-Апр-2014 20:45

[Цитировать]

Клуб безбашенных / The Bang Bang Club- -Страна: Канада, ЮАР
Жанр: драма
Год выпуска: 2010
Продолжительность: 01:48:03-Перевод: Профессиональный (двухголосый закадровый)-Cубтитры: русские, английские
Оригинальная аудиодорожка: английский
Режиссер: Стивен Сильвер / Steven Silver
В ролях: Райан Филипп, Малин Акерман, Тейлор Китч, Нильс Ван Ярсвельд, Фрэнк Ротенбаш, Нина Милнер, Джессика Хайнс, Рассел Савадье, Лика Ван Ден Берг, Кгоси Монгаке
Описание: Реальная история четырех молодых фотографов в ЮАР времен апартеида. Это удивительная и иногда ужасающая история людей и их невероятного подвига, на который они пошли, чтобы заполучить заветные фотографии.
семпл: http://multi-up.com/967113
Тип релиза: BDRip 1080p
Контейнер: MKV
Видео: AVC at 9189 Кбит/сек; 1920 x 816 (2.353) at 23.976 fps
Аудио: AC-3 at 384 Кбит/сек; 6 каналов, 48,0 КГц [DVO]
Аудио: DTS at 1509 Кбит/сек; 6 каналов, 48,0 КГц [Eng]

MediaInfo

Общее
Уникальный идентификатор : 252778562053944108234464848589858915460 (0xBE2B615484770140AE6F8E4785C9C484)
Полное имя : D:\Фильмы\Боевики\Клуб безбашенных\The.Bang.Bang.Club.2010.1080p.BluRay.Rus.Eng.HDCLUB.mkv
Формат : Matroska
Версия формата : Version 2
Размер файла : 8,53 Гбайт
Продолжительность : 1 ч. 48 м.
Общий поток : 11,3 Мбит/сек
Название фильма : The Bang Bang Club (2010) - Release for HDCLUB
Дата кодирования : UTC 2012-09-21 21:07:12
Программа кодирования : mkvmerge v5.7.0 ('The Whirlwind') built on Jul 8 2012 20:08:51
Библиотека кодирования : libebml v1.2.3 + libmatroska v1.3.0
Видео
Идентификатор : 1
Формат : AVC
Формат/Информация : Advanced Video Codec
Профиль формата : High@L4.1
Параметр CABAC формата : Да
Параметр ReFrames формата : 5 кадров
Идентификатор кодека : V_MPEG4/ISO/AVC
Продолжительность : 1 ч. 48 м.
Битрейт : 9189 Кбит/сек
Ширина : 1920 пикселей
Высота : 816 пикселей
Соотношение сторон : 2,35:1
Режим частоты кадров : Постоянный
Частота кадров : 23,976 кадра/сек
Цветовое пространство : YUV
Субдискретизация насыщенности : 4:2:0
Битовая глубина : 8 бит
Тип развёртки : Прогрессивная
Бит/(Пиксели*Кадры) : 0.245
Размер потока : 6,94 Гбайт (81%)
Заголовок : Release for HDCLUB
Библиотека кодирования : x264 core 125 r2208 d9d2288
Настройки программы : cabac=1 / ref=5 / deblock=1:-3:-3 / analyse=0x3:0x113 / me=umh / subme=10 / psy=1 / psy_rd=1.00:0.00 / mixed_ref=1 / me_range=32 / chroma_me=1 / trellis=2 / 8x8dct=1 / cqm=0 / deadzone=21,11 / fast_pskip=0 / chroma_qp_offset=-2 / threads=18 / lookahead_threads=3 / sliced_threads=0 / nr=0 / decimate=0 / interlaced=0 / bluray_compat=0 / constrained_intra=0 / bframes=8 / b_pyramid=2 / b_adapt=2 / b_bias=0 / direct=3 / weightb=1 / open_gop=0 / weightp=2 / keyint=240 / keyint_min=22 / scenecut=40 / intra_refresh=0 / rc_lookahead=60 / rc=crf / mbtree=0 / crf=18.0 / qcomp=0.60 / qpmin=10 / qpmax=51 / qpstep=4 / vbv_maxrate=50000 / vbv_bufsize=62500 / crf_max=0.0 / nal_hrd=none / ip_ratio=1.40 / pb_ratio=1.30 / aq=1:0.80
Язык : English
Default : Нет
Forced : Нет
Коэффициенты матрицы : BT.709
Аудио #1
Идентификатор : 2
Формат : AC-3
Формат/Информация : Audio Coding 3
Расширение режима : CM (complete main)
Параметр Endianness формата : Big
Идентификатор кодека : A_AC3
Продолжительность : 1 ч. 48 м.
Вид битрейта : Постоянный
Битрейт : 384 Кбит/сек
Каналы : 6 каналов
Расположение каналов : Front: L C R, Side: L R, LFE
Частота : 48,0 КГц
Битовая глубина : 16 бит
Метод сжатия : С потерями
Размер потока : 297 Мбайт (3%)
Заголовок : AC3 5.1 @ 384 kbps - DVO, NTV+
Язык : Russian
Default : Да
Forced : Нет
Аудио #2
Идентификатор : 3
Формат : DTS
Формат/Информация : Digital Theater Systems
Режим : 16
Параметр Endianness формата : Big
Идентификатор кодека : A_DTS
Продолжительность : 1 ч. 48 м.
Вид битрейта : Постоянный
Битрейт : 1509 Кбит/сек
Каналы : 6 каналов
Расположение каналов : Front: L C R, Side: L R, LFE
Частота : 48,0 КГц
Битовая глубина : 16 бит
Метод сжатия : С потерями
Размер потока : 1,14 Гбайт (13%)
Заголовок : DTS 5.1 @ 1536 kbps
Язык : English
Default : Нет
Forced : Нет
Текст #1
Идентификатор : 4
Формат : UTF-8
Идентификатор кодека : S_TEXT/UTF8
Идентификатор кодека/Информация : UTF-8 Plain Text
Язык : Russian
Default : Нет
Forced : Нет
Текст #2
Идентификатор : 5
Формат : UTF-8
Идентификатор кодека : S_TEXT/UTF8
Идентификатор кодека/Информация : UTF-8 Plain Text
Язык : English
Default : Нет
Forced : Нет
Меню
00:00:00.000 : en:00:00:00.000
00:12:28.373 : en:00:12:28.373
00:20:54.962 : en:00:20:54.962
00:30:12.769 : en:00:30:12.769
00:43:20.306 : en:00:43:20.306
00:52:47.414 : en:00:52:47.414
01:04:19.105 : en:01:04:19.105
01:15:23.769 : en:01:15:23.769
01:25:54.066 : en:01:25:54.066
01:37:10.575 : en:01:37:10.575

Скриншоты

Скачать

Скачать торрент!

Как скачивать? · Что такое торрент? · Рейтинг и ограничения

Сайт не распространяет и не хранит электронные версии произведений, а лишь предоставляет доступ к создаваемому пользователями каталогу ссылок на торрент-файлы, которые содержат только списки хеш-сумм

[Профиль] [ЛС]
Показать сообщения:    
Ответить на тему

Текущее время: Сегодня 06:01

Часовой пояс: GMT + 4



Вы не можете начинать темы
Вы не можете отвечать на сообщения
Вы не можете редактировать свои сообщения
Вы не можете удалять свои сообщения
Вы не можете голосовать в опросах
Вы не можете прикреплять файлы к сообщениям
Вы не можете скачивать файлы