Совместная поездка / Ride Along (Тим Стори / Tim Story) [2014, США, Криминал, комедия, HDRip] DVO

Ответить на тему
 
Автор Сообщение

user ®

Стаж: 7 лет 7 месяцев

Сообщений: 20008

Пост Пост: #1 от 15-Апр-2014 17:35

[Цитировать]

Совместная поездка / Ride Along
Выпущено: США
Жанр: криминал, комедия
Год выхода: 2014
Продолжительность: 01:39:39-Озвучивание: Любительский (двухголосый закадровый) [Пиратская Студия]
Субтитры: нет-Режиссер: Тим Стори
В ролях: Айс Кьюб, Кевин Харт, Лоренс Фишбёрн, Джон Легуизамо, Брюс МакГилл, Тика Самптер, Брайан Коллен, Драгош Букур, Гари Оуэн, Джейкоб Латимор-О фильме: Бен, только-только поступивший в полицейскую академию, отправляется вместе с полицейским Джеймсом в патруль по Атланте, чтобы доказать, что он достоин жениться на Энджел, сестре Джеймса.- -Качество: HDRip [Рип с BDRip 720p]
Формат: AVI (XviD)
Видео: MPEG-4 Visual (XviD), 720x304, 23.976 fps, 1700 Kbps
Аудио1: АС3, 48 KHz, 6 ch, 384 Kbps
Сэмпл-

MI

General
Complete name                            : Sovmestnaya.Poezdka.2014.P.HDRip.1400MB.avi
Format                                   : AVI
Format/Info                              : Audio Video Interleave
File size                                : 1.46 GiB
Duration                                 : 1h 39mn
Overall bit rate                         : 2 093 Kbps
Writing application                      : VirtualDubMod 1.5.10.2 (build 2540/release)
Writing library                          : VirtualDubMod build 2540/release
Video
ID                                       : 0
Format                                   : MPEG-4 Visual
Format profile                           : Advanced Simple@L5
Format settings, BVOP                    : 2
Format settings, QPel                    : No
Format settings, GMC                     : No warppoints
Format settings, Matrix                  : Custom
Codec ID                                 : XVID
Codec ID/Hint                            : XviD
Duration                                 : 1h 39mn
Bit rate                                 : 1 700 Kbps
Width                                    : 720 pixels
Height                                   : 304 pixels
Display aspect ratio                     : 2.35:1
Frame rate                               : 23.976 fps
Color space                              : YUV
Chroma subsampling                       : 4:2:0
Bit depth                                : 8 bits
Scan type                                : Progressive
Compression mode                         : Lossy
Bits/(Pixel*Frame)                       : 0.324
Stream size                              : 1.18 GiB (81%)
Writing library                          : XviD 1.2.1 (UTC 2008-12-04)
Audio
ID                                       : 1
Format                                   : AC-3
Format/Info                              : Audio Coding 3
Mode extension                           : CM (complete main)
Format settings, Endianness              : Big
Codec ID                                 : 2000
Duration                                 : 1h 39mn
Bit rate mode                            : Constant
Bit rate                                 : 384 Kbps
Channel count                            : 6 channels
Channel positions                        : Front: L C R, Side: L R, LFE
Sampling rate                            : 48.0 KHz
Bit depth                                : 16 bits
Compression mode                         : Lossy
Stream size                              : 273 MiB (18%)
Alignment                                : Split accross interleaves
Interleave, duration                     : 42 ms (1.00 video frame)
Interleave, preload duration             : 500 ms

Скриншот c названием фильма

Скриншоты

Скачать

Скачать торрент!

Как скачивать? · Что такое торрент? · Рейтинг и ограничения

Сайт не распространяет и не хранит электронные версии произведений, а лишь предоставляет доступ к создаваемому пользователями каталогу ссылок на торрент-файлы, которые содержат только списки хеш-сумм

[Профиль] [ЛС]
Показать сообщения:    
Ответить на тему

Текущее время: Сегодня 16:35

Часовой пояс: GMT + 4



Вы не можете начинать темы
Вы не можете отвечать на сообщения
Вы не можете редактировать свои сообщения
Вы не можете удалять свои сообщения
Вы не можете голосовать в опросах
Вы не можете прикреплять файлы к сообщениям
Вы не можете скачивать файлы