Владение 18 (Святослав Подгаевский) [2013 г., ужасы, триллер, детектив, BDRip-AVC]

Ответить на тему
 
Автор Сообщение

user ®

Стаж: 7 лет 7 месяцев

Сообщений: 20008

Пост Пост: #1 от 15-Апр-2014 14:25

[Цитировать]

Владение 18«Зло живёт по соседству»-- Жанр: ужасы, триллер, детектив
Год выпуска: 2013
Продолжительность: 01:32:28--Режиссер: Святослав Подгаевский
В ролях: Дмитрий Ендальцев, Мария Фомина, Борис Полунин, Виктория Райкова, Юрий Филатов, Сергей Холмогоров, Ольга Приходько--Описание: Сиреневые Холмы, Владение 18 — адрес обычной многоэтажки на окраине города. Скоро здесь будет новый цветущий микрорайон, но пока вокруг царит девственное запустение. Сейчас цены на квартиры в этом доме так заманчиво низки… И продают их, оказывается, только по специальной благотворительной программе инвесторов! Когда ещё небогатым молодожёнам Свете и Максиму представится такой удивительный шанс переехать из крохотной коммуналки в собственную просторную квартиру?..
Но вскоре после новоселья они начинают понимать, что с новым домом что-то не так. Странные соседи, с которыми молодожёнам никак не удаётся поговорить, сторож, больше напоминающий надзирателя в концлагере, кошмарные сны и видения, которые совсем не похожи на игру воображения… Но самое ужасное — гости, навещающие их после переезда… Гости-призраки, рассказывающие о том, какой страшной смертью они умерли в этом доме. Удастся ли Свете и Максиму выбраться живыми из дьявольской западни или уже слишком поздно?--Релиз от: -- --Качество видео: BDRip-AVC
Формат видео: MKV
Видео: x.264, 1032x432 (2,40:1), 24,000 fps, 1812 Кbps, 0.169 bit/pixel
Аудио: 48 kHz, AC3 Dolby Digital, 3/2 (L,C,R,l,r) + LFE ch, ~448.00 kbps avg
-
-

MediaInfo

General
Unique ID : 186295310888530314362976155738086758777 (0x8C272BF960133B5991682A4223C6D979)
Complete name : C:\Users/Новая папка\Vladeniye.18.2013.RUS.BDRip.x264.-HELLYWOOD.mkv
Format : Matroska
Format version : Version 4 / Version 2
File size : 1.46 GiB
Duration : 1h 32mn
Overall bit rate : 2 261 Kbps
Movie name : HELLYWOOD - rip by potroks
Encoded date : UTC 2014-04-13 04:07:09
Writing application : mkvmerge v5.9.0 ('On The Loose') built on Dec 15 2012 16:39:58
Writing library : libebml v1.3.0 + libmatroska v1.4.0
Video
ID : 1
Format : AVC
Format/Info : Advanced Video Codec
Format profile : High@L4.1
Format settings, CABAC : Yes
Format settings, ReFrames : 10 frames
Codec ID : V_MPEG4/ISO/AVC
Duration : 1h 32mn
Bit rate : 1 812 Kbps
Width : 1 032 pixels
Height : 432 pixels
Display aspect ratio : 2.40:1
Frame rate mode : Constant
Frame rate : 24.000 fps
Color space : YUV
Chroma subsampling : 4:2:0
Bit depth : 8 bits
Scan type : Progressive
Bits/(Pixel*Frame) : 0.169
Stream size : 1.14 GiB (78%)
Title : Владение 18
Writing library : x264 core 130 r2273 b3065e6
Encoding settings : cabac=1 / ref=10 / deblock=1:-2:-2 / analyse=0x3:0x133 / me=umh / subme=11 / psy=1 / psy_rd=1.00:0.05 / mixed_ref=1 / me_range=32 / chroma_me=1 / trellis=2 / 8x8dct=1 / cqm=0 / deadzone=21,11 / fast_pskip=0 / chroma_qp_offset=-3 / threads=9 / lookahead_threads=6 / sliced_threads=0 / nr=0 / decimate=0 / interlaced=0 / bluray_compat=0 / constrained_intra=0 / bframes=11 / b_pyramid=2 / b_adapt=2 / b_bias=0 / direct=3 / weightb=1 / open_gop=0 / weightp=2 / keyint=250 / keyint_min=23 / scenecut=40 / intra_refresh=0 / rc_lookahead=60 / rc=2pass / mbtree=0 / bitrate=1812 / ratetol=1.0 / qcomp=0.70 / qpmin=0 / qpmax=69 / qpstep=4 / cplxblur=20.0 / qblur=0.5 / vbv_maxrate=20000 / vbv_bufsize=20000 / nal_hrd=none / ip_ratio=1.35 / pb_ratio=1.25 / aq=1:0.80
Language : Russian
Default : Yes
Forced : No
Audio
ID : 2
Format : AC-3
Format/Info : Audio Coding 3
Mode extension : CM (complete main)
Format settings, Endianness : Big
Codec ID : A_AC3
Duration : 1h 32mn
Bit rate mode : Constant
Bit rate : 448 Kbps
Channel(s) : 6 channels
Channel positions : Front: L C R, Side: L R, LFE
Sampling rate : 48.0 KHz
Bit depth : 16 bits
Compression mode : Lossy
Stream size : 296 MiB (20%)
Title : DD 5.1 @ 448 kbps
Language : Russian
Default : Yes
Forced : No
Menu
00:00:00.000 : en:00:00:00.000
00:00:04.000 : en:00:00:04.000
00:10:10.458 : en:00:10:10.458
00:19:36.417 : en:00:19:36.417
00:30:53.500 : en:00:30:53.500
00:40:34.958 : en:00:40:34.958
00:49:58.542 : en:00:49:58.542
01:07:22.792 : en:01:07:22.792
01:24:06.417 : en:01:24:06.417

Скриншоты




Скачать

Скачать торрент!

Как скачивать? · Что такое торрент? · Рейтинг и ограничения

Сайт не распространяет и не хранит электронные версии произведений, а лишь предоставляет доступ к создаваемому пользователями каталогу ссылок на торрент-файлы, которые содержат только списки хеш-сумм

[Профиль] [ЛС]
Показать сообщения:    
Ответить на тему

Текущее время: Сегодня 17:32

Часовой пояс: GMT + 4



Вы не можете начинать темы
Вы не можете отвечать на сообщения
Вы не можете редактировать свои сообщения
Вы не можете удалять свои сообщения
Вы не можете голосовать в опросах
Вы не можете прикреплять файлы к сообщениям
Вы не можете скачивать файлы