Страдающие от безнадёжной любви / Lovelorn (Бекки Престон / Becky Preston) [2010, Великобритания, фэнтези, драма, мелодрама, HDTV 1080i] DVO (НТВ+)

Ответить на тему
 
Автор Сообщение

user ®

Стаж: 7 лет 7 месяцев

Сообщений: 20008

Пост Пост: #1 от 14-Апр-2014 20:40

[Цитировать]

Страдающие от безнадёжной любви / Lovelorn
Страна: Великобритания
Жанр: фэнтези, драма, мелодрама
Год выпуска: 2010
Продолжительность: 01:25:45
Перевод: Профессиональный (двухголосый закадровый) НТВ+
Cубтитры: нет
Оригинальная аудиодорожка: нет
Режиссер: Бекки Престон / Becky Preston
В ролях: Филлип Джеймс, Орландо Сил, Оливия Чаппель, Софи Ловелл Андерсон, Тим Робинсон, Ребекка Сантос, Эдмунд Дин, Сара Винтер, Шэйн Риммер, Хелен Хобсон
Описание: В результате дорожной аварии юная Лорна впадает в кому. Чтобы помочь ей вернуться в сознание, её старший брат Джон отправляется в потусторонний мир. Но у Лорны другие планы…
Сэмпл: http://multi-up.com/967041

Тип релиза: HDTV 1080i
Контейнер: MKV
Видео: MPEG4 (H264) 1920x1080 (16:9) 25fps 6061 Kbps
Аудио: AC3 5.1 ch 48 kHz 16 bit 448 Kbps

MediaInfo

Общее
Уникальный идентификатор : 220146327193968352968907068517567163672 (0xA59EA3EF3895FF12905E698546A7ED18)
Полное имя : D:\Stradayouschie.ot.beznadejnoi.lubvi.HDTV.1080i.DVO.mkv
Формат : Matroska
Версия формата : Version 4 / Version 2
Размер файла : 3,98 Гбайт
Продолжительность : 1 ч. 25 м.
Общий поток : 6642 Кбит/сек
Название фильма : SharkN73 06.04.2014
Дата кодирования : UTC 2014-04-06 13:48:44
Программа кодирования : mkvmerge v6.8.0 ('Theme for Great Cities') 64bit built on Mar 2 2014 21:34:26
Библиотека кодирования : libebml v1.3.0 + libmatroska v1.4.1
Видео
Идентификатор : 1
Формат : AVC
Формат/Информация : Advanced Video Codec
Профиль формата : High@L4.0
Параметр CABAC формата : Да
Параметр ReFrames формата : 3 кадра
Параметр GOP формата : M=4, N=28
Идентификатор кодека : V_MPEG4/ISO/AVC
Продолжительность : 1 ч. 25 м.
Битрейт : 6061 Кбит/сек
Ширина : 1920 пикселей
Высота : 1080 пикселей
Соотношение сторон : 16:9
Режим частоты кадров : Постоянный
Частота кадров : 25,000 кадров/сек
Стандарт вещания : Component
Цветовое пространство : YUV
Субдискретизация насыщенности : 4:2:0
Битовая глубина : 8 бит
Тип развёртки : Чересстрочная
Порядок развёртки : Верхнее поле первое
Бит/(Пиксели*Кадры) : 0.117
Размер потока : 3,63 Гбайт (91%)
Язык : English
Default : Да
Forced : Нет
Основные цвета : BT.709
Характеристики трансфера : BT.709
Коэффициенты матрицы : BT.709
Аудио
Идентификатор : 2
Формат : AC-3
Формат/Информация : Audio Coding 3
Расширение режима : CM (complete main)
Параметр Endianness формата : Big
Идентификатор кодека : A_AC3
Продолжительность : 1 ч. 25 м.
Вид битрейта : Постоянный
Битрейт : 448 Кбит/сек
Каналы : 2 канала
Channel(s)_Original : 6 каналов
Расположение каналов : Front: L C R, Side: L R, LFE
Частота : 48,0 КГц
Битовая глубина : 16 бит
Метод сжатия : С потерями
Задержка видео : 1 мс.
Размер потока : 275 Мбайт (7%)
Язык : Russian
Default : Да
Forced : Нет

Скриншоты

Скачать

Скачать торрент!

Как скачивать? · Что такое торрент? · Рейтинг и ограничения

Сайт не распространяет и не хранит электронные версии произведений, а лишь предоставляет доступ к создаваемому пользователями каталогу ссылок на торрент-файлы, которые содержат только списки хеш-сумм

[Профиль] [ЛС]
Показать сообщения:    
Ответить на тему

Текущее время: Сегодня 16:25

Часовой пояс: GMT + 4



Вы не можете начинать темы
Вы не можете отвечать на сообщения
Вы не можете редактировать свои сообщения
Вы не можете удалять свои сообщения
Вы не можете голосовать в опросах
Вы не можете прикреплять файлы к сообщениям
Вы не можете скачивать файлы