13 грехов / 13 Sins (Даниэль Штамм / Daniel Stamm) [2014, США, Триллер, Ужасы, WEBRip] Original + Sub Rus, Eng

Ответить на тему
 
Автор Сообщение

user ®

Стаж: 7 лет 7 месяцев

Сообщений: 20008

Пост Пост: #1 от 14-Апр-2014 20:40

[Цитировать]

13 грехов / 13 Sins
Год выпуска: 2014
Страна: США
Жанр: триллер, ужасы
Продолжительность: 01:32:31
Перевод: Субтитры (lumez)
Cубтитры: русские
Оригинальная аудиодорожка: английский
Навигация по главам: нет
-------------------------------------------------------------------------------------
Режиссер: Даниэль Штамм / Daniel Stamm
В ролях: Марк Уэббер, Рутина Уэсли, Девон Грайе, Пруитт Тэйлор Винс, Рон Перлман
Описание: Эллиот Бриндл — умный кроткий сотрудник службы социального обеспечения, тонущий в долгах. Но все меняется, когда раздается телефонный звонок. На том конце провода ему сообщают, что он становится участником шоу, условия простые — выполнить 13 заданий. Первые задания весьма безобидные, но вскоре они становятся всё более и более изощрёнными и опасными…
-------------------------------------------------------------------------------------
Качество: WEBRip
Формат: MKV
Видеокодек: AVC, x264 L4.1
Аудиокодек: AC3
Видео: 1280x528; 23.976 fps; ~ 4 070 Kbps
Аудио: Английский; AC3; 6 Ch; 48.0 KHz; 448 Kbps;
Субтитры #1: Русские; SRT UTF-8 Полные (lumez)
Субтитры #2: Английские; SRT UTF-8 SDH
------------------------------------------------------------------------------------

MediaInfo

General
Unique ID : 246662231921816575602270733245328551819 (0xB9916AF8EC413635B0A64C86073A6F8B)
Complete name : E:\projects\movie\13 Sins (2014) WEBDL 720p x264 DD5.1\13 Sins 2014 WEBDL 720p.mkv
Format : Matroska
Format version : Version 4 / Version 2
File size : 2.92 GiB
Duration : 1h 32mn
Overall bit rate : 4 517 Kbps
Encoded date : UTC 2014-04-13 18:21:49
Writing application : mkvmerge v6.5.0 ('Isn't she lovely') built on Oct 20 2013 12:50:05
Writing library : libebml v1.3.0 + libmatroska v1.4.1
Video
ID : 1
Format : AVC
Format/Info : Advanced Video Codec
Format profile : High@L4.1
Format settings, CABAC : Yes
Format settings, ReFrames : 12 frames
Codec ID : V_MPEG4/ISO/AVC
Duration : 1h 32mn
Bit rate : 4 070 Kbps
Width : 1 280 pixels
Height : 528 pixels
Display aspect ratio : 2.40:1
Frame rate mode : Constant
Frame rate : 23.976 fps
Color space : YUV
Chroma subsampling : 4:2:0
Bit depth : 8 bits
Scan type : Progressive
Bits/(Pixel*Frame) : 0.251
Stream size : 2.57 GiB (88%)
Writing library : x264 core 133 r2334 a3ac64b
Encoding settings : cabac=1 / ref=12 / deblock=1:-3:-3 / analyse=0x3:0x113 / me=umh / subme=11 / psy=1 / psy_rd=1.00:0.00 / mixed_ref=1 / me_range=32 / chroma_me=1 / trellis=2 / 8x8dct=1 / cqm=0 / deadzone=21,11 / fast_pskip=0 / chroma_qp_offset=-2 / threads=6 / lookahead_threads=1 / sliced_threads=0 / nr=0 / decimate=0 / interlaced=0 / bluray_compat=0 / constrained_intra=0 / bframes=8 / b_pyramid=2 / b_adapt=2 / b_bias=0 / direct=3 / weightb=1 / open_gop=0 / weightp=2 / keyint=240 / keyint_min=24 / scenecut=40 / intra_refresh=0 / rc_lookahead=240 / rc=2pass / mbtree=1 / bitrate=4070 / ratetol=1.0 / qcomp=0.70 / qpmin=0 / qpmax=69 / qpstep=4 / cplxblur=20.0 / qblur=0.5 / ip_ratio=1.10 / aq=1:0.80
Language : English
Default : Yes
Forced : No
Audio
ID : 2
Format : AC-3
Format/Info : Audio Coding 3
Mode extension : CM (complete main)
Format settings, Endianness : Big
Codec ID : A_AC3
Duration : 1h 32mn
Bit rate mode : Constant
Bit rate : 448 Kbps
Channel(s) : 6 channels
Channel positions : Front: L C R, Side: L R, LFE
Sampling rate : 48.0 KHz
Bit depth : 16 bits
Compression mode : Lossy
Stream size : 296 MiB (10%)
Title : 448 kbps
Language : English
Default : Yes
Forced : No
Text #1
ID : 3
Format : UTF-8
Codec ID : S_TEXT/UTF8
Codec ID/Info : UTF-8 Plain Text
Title : lumez
Language : Russian
Default : Yes
Forced : No
Text #2
ID : 4
Format : UTF-8
Codec ID : S_TEXT/UTF8
Codec ID/Info : UTF-8 Plain Text
Title : sdh
Language : English
Default : No
Forced : No

Скриншот c названием фильма

Скриншоты

Субтитры

219
00:19:59,265 --> 00:20:01,232
- А теперь давай в кровать.
220
00:20:23,722 --> 00:20:27,325
- Знаешь, когда Шелби была маленькой...
- Мам!
221
00:20:27,327 --> 00:20:31,862
Она всегда думала о
своей свадьбе и с каждым
222
00:20:31,864 --> 00:20:34,532
разом это было всё масштабнее.
223
00:20:34,534 --> 00:20:38,603
К 12 годам она уже разъезжала
224
00:20:38,605 --> 00:20:42,740
во главе парада слонов...
225
00:20:42,742 --> 00:20:45,843
... сопровождаемого шестью евнухами.
- С тех пор есть пара изменений.
226
00:20:45,845 --> 00:20:50,381
- Я сейчас.
227
00:20:50,383 --> 00:20:52,750
- Алло?
- Доброе утро, Мистер Бриндл,
228
00:20:52,752 --> 00:20:54,652
Это испытание номер три из 13
229
00:20:54,654 --> 00:20:58,389
На $5,000. Доведите ребёнка до слёз.
230
00:20:58,391 --> 00:21:00,558
- Кого?
- У вас пять минут.
231
00:21:00,560 --> 00:21:02,960
- Чего?
- Желаем Вам удачи.
232
00:21:02,962 --> 00:21:04,695
- Эллиот?
233
00:21:06,732 --> 00:21:10,835
- Всё хорошо?
- Ага.
234
00:21:10,837 --> 00:21:14,272
- Пойду пописаю.
- Класс. Напишу в фейсбуке.
235
00:21:14,274 --> 00:21:17,375
Пресс-релиз будет позже.
236
00:21:55,547 --> 00:21:57,048
Хей...
Скачать

Скачать торрент!

Как скачивать? · Что такое торрент? · Рейтинг и ограничения

Сайт не распространяет и не хранит электронные версии произведений, а лишь предоставляет доступ к создаваемому пользователями каталогу ссылок на торрент-файлы, которые содержат только списки хеш-сумм

[Профиль] [ЛС]
Показать сообщения:    
Ответить на тему

Текущее время: Сегодня 06:29

Часовой пояс: GMT + 4



Вы не можете начинать темы
Вы не можете отвечать на сообщения
Вы не можете редактировать свои сообщения
Вы не можете удалять свои сообщения
Вы не можете голосовать в опросах
Вы не можете прикреплять файлы к сообщениям
Вы не можете скачивать файлы