47 ронинов / 47 Ronin (Карл Ринш / Carl Rinsch) [2013, США, Фэнтези, боевик, приключения, BDRip 1080p] Dub + Sub (Eng, Romanian) + Original Eng

Ответить на тему
 
Автор Сообщение

user ®

Стаж: 7 лет 7 месяцев

Сообщений: 20008

Пост Пост: #1 от 13-Апр-2014 22:20

[Цитировать]

47 ронинов / 47 Ronin
Страна: США
Студия: H2F Entertainment, Mid Atlantic Films, Stuber Productions
Жанр: Фэнтези, боевик, приключения
Год выпуска: 2013
Продолжительность: 01:58:43
Перевод: Профессиональный (дублированный)
Cубтитры: английские, Румынские
Оригинальная аудиодорожка: английский
Режиссер: Карл Ринш / Carl Rinsch
В ролях: Киану Ривз, Ринко Кикучи, Кэри-Хироюки Тагава, Хироюки Санада, Таданобу Асано, Того Игава, Йорик ван Вагенинген, Ко Шибасаки, Рик Жене, Харука Абе, Джин Аканиши
Описание: Вдохновленный одним из самых известных сказаний Японии, фильм «47 ронинов» (47 Ronin) рассказывает эпическую историю героических приключений.После того как коварный военачальник убивает их хозяина и изгоняет их, 47 преданных ронинов, храбрых воинов-самураев, клянутся отомстить и восстановить попранную честь. Изгнанные из своих жилищ и рассеянные по всей стране, они вынуждены принять помощь Кая (Киану Ривз), пришельца-полукровки. Этот отвергнутый всеми изгой теперь превращается в героя, и вместе с самураями герой картины «47 ронинов» преодолевает невероятные испытания, способные принести погибель обычным воинам.

Сэмпл: http://multi-up.com/966001
Тип релиза: BDRip 1080p
Контейнер: MKV
Видео: MPEG-4 AVC, 14.1 Мбит/с, 1920x800, 2.40:1, 23.976 fps, 0.383 Bits/(Pixel*Frame)
Аудио 1: Русский AC3, 6 ch, 384 Кбит/с, 48.0 KHz - iTunes
Аудио 2: английский DTS, 6 ch, 1510 Кбит/с, 48.0 KHz

MediaInfo

General
Unique ID : 195215806249001474359898978551752348083 (0x92DD325A18BA3516B8C3FCCF9060D1B3)
Complete name : 47.Ronin.2013.1080p.BluRay.x264.Rus.Eng.Subs-DON.mkv
Format : Matroska
Format version : Version 4 / Version 2
File size : 13.6 GiB
Duration : 1h 58mn
Overall bit rate : 16.3 Mbps
Encoded date : UTC 2014-04-09 19:17:39
Writing application : mkvmerge v6.5.0 ('Isn't she lovely') built on Oct 20 2013 12:50:05
Writing library : libebml v1.3.0 + libmatroska v1.4.1
Video
ID : 1
Format : AVC
Format/Info : Advanced Video Codec
Format profile : High@L4.1
Format settings, CABAC : Yes
Format settings, ReFrames : 5 frames
Codec ID : V_MPEG4/ISO/AVC
Duration : 1h 58mn
Bit rate : 14.1 Mbps
Width : 1 920 pixels
Height : 800 pixels
Display aspect ratio : 2.40:1
Frame rate mode : Constant
Frame rate : 23.976 fps
Color space : YUV
Chroma subsampling : 4:2:0
Bit depth : 8 bits
Scan type : Progressive
Bits/(Pixel*Frame) : 0.383
Stream size : 11.7 GiB (86%)
Writing library : x264 core 140 r2377+40 929f149 tMod [8-bit@4:2:0 X86]
Encoding settings : cabac=1 / ref=5 / deblock=1:-3:-3 / analyse=0x3:0x113 / me=tesa / subme=10 / psy=1 / fade_compensate=0.00 / psy_rd=1.10:0.00 / mixed_ref=1 / me_range=24 / chroma_me=1 / trellis=2 / 8x8dct=1 / cqm=0 / deadzone=21,11 / fast_pskip=0 / chroma_qp_offset=-2 / threads=12 / lookahead_threads=2 / sliced_threads=0 / nr=0 / decimate=0 / interlaced=0 / bluray_compat=0 / constrained_intra=0 / fgo=0 / bframes=8 / b_pyramid=2 / b_adapt=2 / b_bias=0 / direct=3 / weightb=1 / open_gop=0 / weightp=2 / keyint=250 / keyint_min=23 / scenecut=40 / intra_refresh=0 / rc=crf / mbtree=0 / crf=17.0000 / qcomp=0.70 / qpmin=0:0:0 / qpmax=69:69:69 / qpstep=4 / ip_ratio=1.30 / pb_ratio=1.10 / aq=4:0.75 / aq-sensitivity=10.00 / aq-factor=1.00:1.00:1.00 / aq2=0 / aq3=0
Language : English
Default : Yes
Forced : No
Audio #1
ID : 2
Format : AC-3
Format/Info : Audio Coding 3
Mode extension : CM (complete main)
Format settings, Endianness : Big
Codec ID : A_AC3
Duration : 1h 58mn
Bit rate mode : Constant
Bit rate : 384 Kbps
Channel count : 6 channels
Channel positions : Front: L C R, Side: L R, LFE
Sampling rate : 48.0 KHz
Bit depth : 16 bits
Compression mode : Lossy
Stream size : 326 MiB (2%)
Language : Russian
Default : Yes
Forced : No
Audio #2
ID : 3
Format : DTS
Format/Info : Digital Theater Systems
Mode : 16
Format settings, Endianness : Big
Codec ID : A_DTS
Duration : 1h 58mn
Bit rate mode : Constant
Bit rate : 1 509 Kbps
Channel count : 6 channels
Channel positions : Front: L C R, Side: L R, LFE
Sampling rate : 48.0 KHz
Bit depth : 24 bits
Compression mode : Lossy
Stream size : 1.25 GiB (9%)
Title : DTS
Language : English
Default : No
Forced : No
Text #1
ID : 4
Format : UTF-8
Codec ID : S_TEXT/UTF8
Codec ID/Info : UTF-8 Plain Text
Title : Romanian
Language : Romanian
Default : Yes
Forced : No
Text #2
ID : 5
Format : UTF-8
Codec ID : S_TEXT/UTF8
Codec ID/Info : UTF-8 Plain Text
Title : English
Language : English
Default : No
Forced : No
Menu
00:00:00.000 : :00:00:00.000
00:04:27.559 : :00:04:27.559
00:11:12.088 : :00:11:12.088
00:16:27.820 : :00:16:27.820
00:20:11.836 : :00:20:11.836
00:26:52.319 : :00:26:52.319
00:31:02.944 : :00:31:02.944
00:36:10.627 : :00:36:10.627
00:43:36.614 : :00:43:36.614
00:50:14.511 : :00:50:14.511
00:54:59.421 : :00:54:59.421
00:59:54.049 : :00:59:54.049
01:09:57.735 : :01:09:57.735
01:13:59.018 : :01:13:59.018
01:19:12.247 : :01:19:12.247
01:24:17.386 : :01:24:17.386
01:33:00.825 : :01:33:00.825
01:38:55.555 : :01:38:55.555
01:44:41.609 : :01:44:41.609
01:48:38.303 : :01:48:38.303

Скриншоты

Скачать

Скачать торрент!

Как скачивать? · Что такое торрент? · Рейтинг и ограничения

Сайт не распространяет и не хранит электронные версии произведений, а лишь предоставляет доступ к создаваемому пользователями каталогу ссылок на торрент-файлы, которые содержат только списки хеш-сумм

[Профиль] [ЛС]
Показать сообщения:    
Ответить на тему

Текущее время: Сегодня 09:50

Часовой пояс: GMT + 4



Вы не можете начинать темы
Вы не можете отвечать на сообщения
Вы не можете редактировать свои сообщения
Вы не можете удалять свои сообщения
Вы не можете голосовать в опросах
Вы не можете прикреплять файлы к сообщениям
Вы не можете скачивать файлы