В страхе / In Fear (Джереми Лавринг / Jeremy Lovering) [2013, Великобритания, триллер, BDRip 1080p] VO + Original (Eng) + Sub (Eng)

Ответить на тему
 
Автор Сообщение

user ®

Стаж: 7 лет 7 месяцев

Сообщений: 20008

Пост Пост: #1 от 13-Апр-2014 19:10

[Цитировать]

В страхе / In Fear
Страна: Великобритания
Жанр: триллер
Год выпуска: 2013
Продолжительность: 01:25:05
Перевод: Одноголосый закадровый: перевод и озвучка - Хихикающий доктор
Оригинальная аудиодорожка: английский
Cубтитры: английские (полные и SDH)-Режиссер: Джереми Лавринг / Jeremy Lovering
В ролях: Йен де Кестекер (Том), Элис Энглерт (Люси), Аллен Лич (Макс)-Описание: Том и Люси знакомы лишь две недели. Том приглашает девушку на музыкальный фестиваль в Ирландию. Пытаясь найти в дремучей глуши забронированный отель, молодые люди с ужасом осознают, что заблудились вовсе не случайно. Кто-то с извращенной психикой явно хочет, чтобы Том и Люси никогда не вернулись обратно...-СЭМПЛ
Тип релиза: BDRip 1080p
Исходник: In.Fear.2013.1080p.BluRay.REMUX.TrueHD-C0DEX
Контейнер: MKV
Видео: 1920x816p / 23.976 fps / 2.35:1 / High Profile 4.1 / AVC / ~ 8422 Kbps
Аудио 1: DTS / 1510 Kbps / 5.1 / 48 kHz / Russian / VO - Хихикающий доктор
Аудио 2: DTS / 1510 Kbps / 5.1 / 48 kHz / English / original
Формат субтитров: softsub (SRT)
Спасибо Хихидоку за предоставленный чистый голос.-IMDB * КиноПоиск

MediaInfo / x264 log

General
Complete name : In.Fear.2013.BDRip.1080p.VO.mkv
Format : Matroska
Format version : Version 2
File size : 6.94 GiB
Duration : 1h 25mn
Overall bit rate : 11.7 Mbps
Encoded date : UTC 2014-04-11 11:08:32
Writing application : mkvmerge v5.8.0 ('No Sleep / Pillow') built on Sep 2 2012 15:37:04
Writing library : libebml v1.2.3 + libmatroska v1.3.0
Video
ID : 1
Format : AVC
Format/Info : Advanced Video Codec
Format profile : High@L4.1
Format settings, CABAC : Yes
Format settings, ReFrames : 5 frames
Codec ID : V_MPEG4/ISO/AVC
Duration : 1h 25mn
Bit rate : 8 422 Kbps
Width : 1 920 pixels
Height : 816 pixels
Display aspect ratio : 2.35:1
Frame rate mode : Constant
Frame rate : 23.976 fps
Color space : YUV
Chroma subsampling : 4:2:0
Bit depth : 8 bits
Scan type : Progressive
Bits/(Pixel*Frame) : 0.224
Stream size : 5.01 GiB (72%)
Title : In Fear 2013 HD
Writing library : x264 core 135 r2345 f0c1c53
Encoding settings : cabac=1 / ref=5 / deblock=1:-3:-3 / analyse=0x3:0x113 / me=umh / subme=11 / psy=1 / psy_rd=1.10:0.15 / mixed_ref=1 / me_range=32 / chroma_me=1 / trellis=2 / 8x8dct=1 / cqm=0 / deadzone=21,11 / fast_pskip=1 / chroma_qp_offset=-3 / threads=6 / lookahead_threads=1 / sliced_threads=0 / nr=0 / decimate=1 / interlaced=0 / bluray_compat=0 / constrained_intra=0 / bframes=10 / b_pyramid=2 / b_adapt=2 / b_bias=0 / direct=3 / weightb=1 / open_gop=0 / weightp=2 / keyint=240 / keyint_min=23 / scenecut=40 / intra_refresh=0 / rc=crf / mbtree=0 / crf=17.5 / qcomp=0.60 / qpmin=0 / qpmax=69 / qpstep=4 / ip_ratio=1.40 / pb_ratio=1.30 / aq=2:0.80
Default : Yes
Forced : No
Audio #1
ID : 2
Format : DTS
Format/Info : Digital Theater Systems
Mode : 16
Format settings, Endianness : Big
Codec ID : A_DTS
Duration : 1h 25mn
Bit rate mode : Constant
Bit rate : 1 510 Kbps
Channel(s) : 6 channels
Channel positions : Front: L C R, Side: L R, LFE
Sampling rate : 48.0 KHz
Bit depth : 16 bits
Compression mode : Lossy
Stream size : 919 MiB (13%)
Title : RUS DTS 1510 Kbps 6ch VO Xixidok
Language : Russian
Default : Yes
Forced : No
Audio #2
ID : 3
Format : DTS
Format/Info : Digital Theater Systems
Mode : 16
Format settings, Endianness : Big
Codec ID : A_DTS
Duration : 1h 25mn
Bit rate mode : Constant
Bit rate : 1 510 Kbps
Channel(s) : 6 channels
Channel positions : Front: L C R, Side: L R, LFE
Sampling rate : 48.0 KHz
Bit depth : 16 bits
Compression mode : Lossy
Stream size : 919 MiB (13%)
Title : ENG DTS 1510 Kbps 6ch Original
Language : English
Default : No
Forced : No
Text #1
ID : 4
Format : UTF-8
Codec ID : S_TEXT/UTF8
Codec ID/Info : UTF-8 Plain Text
Title : ENG Subtitles Full
Language : English
Default : No
Forced : No
Text #2
ID : 5
Format : UTF-8
Codec ID : S_TEXT/UTF8
Codec ID/Info : UTF-8 Plain Text
Title : ENG Subtitles SDH
Language : English
Default : No
Forced : No
Menu
00:00:00.000 : :Chapter 01
00:07:52.346 : :Chapter 02
00:14:02.883 : :Chapter 03
00:22:09.410 : :Chapter 04
00:27:20.596 : :Chapter 05
00:33:24.793 : :Chapter 06
00:41:27.817 : :Chapter 07
00:48:05.714 : :Chapter 08
00:54:54.288 : :Chapter 09
01:00:53.313 : :Chapter 10
01:08:48.997 : :Chapter 11
01:14:38.095 : :Chapter 12-x264 [info]: frame I:736 Avg QP:13.42 size:165222
x264 [info]: frame P:24647 Avg QP:14.61 size: 84170
x264 [info]: frame B:97017 Avg QP:16.86 size: 34269
x264 [info]: consecutive B-frames: 1.7% 1.8% 4.6% 24.1% 13.0% 27.3% 7.9% 14.0% 2.7% 1.1% 1.9%

Скриншот с названием

Скриншоты


Скачать

Скачать торрент!

Как скачивать? · Что такое торрент? · Рейтинг и ограничения

Сайт не распространяет и не хранит электронные версии произведений, а лишь предоставляет доступ к создаваемому пользователями каталогу ссылок на торрент-файлы, которые содержат только списки хеш-сумм

[Профиль] [ЛС]
Показать сообщения:    
Ответить на тему

Текущее время: Сегодня 09:46

Часовой пояс: GMT + 4



Вы не можете начинать темы
Вы не можете отвечать на сообщения
Вы не можете редактировать свои сообщения
Вы не можете удалять свои сообщения
Вы не можете голосовать в опросах
Вы не можете прикреплять файлы к сообщениям
Вы не можете скачивать файлы