20 футов под землёй: И пала тьма / 20 Ft Below: The Darkness Descending (Марк Клебанофф / Marc Clebanoff) [2014, США, триллер, WEB-DL 720p] DVO + Original (Eng) + SUB (eng)

Ответить на тему
 
Автор Сообщение

user ®

Стаж: 7 лет 7 месяцев

Сообщений: 20008

Пост Пост: #1 от 13-Апр-2014 19:10

[Цитировать]

20 футов под землёй: И пала тьма
20 Ft Below: The Darkness Descending
Страна: США
Год выпуска: 2014
Жанр: триллер
Продолжительность: 01:36:04
Перевод: Любительский (двухголосый закадровый) - DeadSno & den904
русские субтитры: нет-Режиссёр: Марк Клебанофф: Marc Clebanoff
В главных ролях: Дэнни Трехо, Кинга Филиппс, Фрэнк Крюгер, Джон Хенниган, Тиффани Адамс, Кристофф Ст. Джон, Луис Мэндилор, Майкл Рене Уолтон, Даррен Дарнбаро, Чейз Остин-Описание: Эта история расскажет нам о тайнах многочисленных заброшенных тоннелей метро, расположенных под " никогда не спящими" улицами Нью-Йорка. Здесь в забытом людьми таинственном месте скрывается мрачный и опасный мир. Однажды, молодая девушка отправляется в эти тоннели для того, чтобы снять о них документальный фильм. Все бы ничего, но внезапно она поймет, что там царствует нечто на много страшнее беспросветной тьмы.- -Качество: WEB-DL 720p
Формат: MKV
Видео кодек: AVC
Аудио кодек: АС3
Видео: 1280x718, 23.976 fps, ~3 978 kbps avg, 0.181 bit/pixel
Аудио #1: [RUS] 48 kHz, AC3 Dolby Digital, 2/0 (L,R) ch, ~192 kbps
Аудио #2: [ENG] 48 kHz, AC3 Dolby Digital, 2/0 (L,R) ch, ~192 kbps
субтитры: английские
навигация по главам: 12 глав

скриншоты

MediaInfo

Общее
Уникальный идентификатор : 232899809142975153818821288768103936065 (0xAF36DF2442E16C548A4AC5CA8B027041)
Полное имя : D:\Фильмы\20 футов под землёй\20 Ft Below. The Darkness Descending.2014.WEB-DL 720p.mkv
Формат : Matroska
Версия формата : Version 4 / Version 2
Размер файла : 2,99 Гбайт
Продолжительность : 1 ч. 36 м.
Общий поток : 4450 Кбит/сек
Дата кодирования : UTC 2014-04-11 22:21:12
Программа кодирования : mkvmerge v6.8.0 ('Theme for Great Cities') 32bit built on Mar 2 2014 21:27:07
Библиотека кодирования : libebml v1.3.0 + libmatroska v1.4.1
Видео
Идентификатор : 1
Формат : AVC
Формат/Информация : Advanced Video Codec
Профиль формата : High@L3.1
Параметр CABAC формата : Нет
Параметр ReFrames формата : 2 кадра
Параметр GOP формата : M=2, N=73
Идентификатор кодека : V_MPEG4/ISO/AVC
Продолжительность : 1 ч. 36 м.
Битрейт : 3978 Кбит/сек
Ширина : 1280 пикселей
Высота : 718 пикселей
Соотношение сторон : 16:9
Режим частоты кадров : Постоянный
Частота кадров : 23,976 кадра/сек
Цветовое пространство : YUV
Субдискретизация насыщенности : 4:2:0
Битовая глубина : 8 бит
Тип развёртки : Прогрессивная
Бит/(Пиксели*Кадры) : 0.181
Размер потока : 2,67 Гбайт (89%)
Язык : English
Default : Да
Forced : Нет
Основные цвета : BT.709
Характеристики трансфера : BT.709
Коэффициенты матрицы : BT.709
Аудио #1
Идентификатор : 2
Формат : AC-3
Формат/Информация : Audio Coding 3
Расширение режима : CM (complete main)
Параметр Endianness формата : Big
Идентификатор кодека : A_AC3
Продолжительность : 1 ч. 36 м.
Вид битрейта : Постоянный
Битрейт : 192 Кбит/сек
Каналы : 2 канала
Расположение каналов : Front: L R
Частота : 48,0 КГц
Битовая глубина : 16 бит
Метод сжатия : С потерями
Размер потока : 132 Мбайт (4%)
Заголовок : DVO [DeadSno & den904]
Язык : Russian
Default : Да
Forced : Нет
Аудио #2
Идентификатор : 3
Формат : AC-3
Формат/Информация : Audio Coding 3
Расширение режима : CM (complete main)
Параметр Endianness формата : Big
Идентификатор кодека : A_AC3
Продолжительность : 1 ч. 36 м.
Вид битрейта : Постоянный
Битрейт : 192 Кбит/сек
Каналы : 2 канала
Расположение каналов : Front: L R
Частота : 48,0 КГц
Битовая глубина : 16 бит
Метод сжатия : С потерями
Размер потока : 132 Мбайт (4%)
Заголовок : ENG
Язык : English
Default : Нет
Forced : Нет
Текст
Идентификатор : 4
Формат : UTF-8
Идентификатор кодека : S_TEXT/UTF8
Идентификатор кодека/Информация : UTF-8 Plain Text
Заголовок : Eng Sub
Язык : English
Default : Нет
Forced : Нет
Меню
00:00:00.000 : en:Chapter 1
00:06:34.000 : en:Chapter 2
00:13:53.000 : en:Chapter 3
00:23:14.000 : en:Chapter 4
00:32:51.000 : en:Chapter 5
00:42:29.000 : en:Chapter 6
00:51:11.000 : en:Chapter 7
00:59:47.000 : en:Chapter 8
01:08:06.000 : en:Chapter 9
01:17:59.000 : en:Chapter 10
01:24:15.000 : en:Chapter 11
01:32:02.000 : en:Chapter 12
Скачать

Скачать торрент!

Как скачивать? · Что такое торрент? · Рейтинг и ограничения

Сайт не распространяет и не хранит электронные версии произведений, а лишь предоставляет доступ к создаваемому пользователями каталогу ссылок на торрент-файлы, которые содержат только списки хеш-сумм

[Профиль] [ЛС]
Показать сообщения:    
Ответить на тему

Текущее время: Сегодня 08:00

Часовой пояс: GMT + 4



Вы не можете начинать темы
Вы не можете отвечать на сообщения
Вы не можете редактировать свои сообщения
Вы не можете удалять свои сообщения
Вы не можете голосовать в опросах
Вы не можете прикреплять файлы к сообщениям
Вы не можете скачивать файлы