Страх сцены / Боязнь сцены / Stage Fright (Джером Сэйбл / Jerome Sable) [2014, Канада, ужасы, триллер, мюзикл, WEB-DL 720p] VO + Original (Eng) + SUB (eng)

Ответить на тему
 
Автор Сообщение

user ®

Стаж: 7 лет 7 месяцев

Сообщений: 20008

Пост Пост: #1 от 13-Апр-2014 19:10

[Цитировать]

Страх сцены : Stage Fright«Sing Your Heart Out!» Страна: Канада
Год выпуска: 2014
Жанр: ужасы, триллер, мюзикл
Продолжительность: 01:28:16
Перевод: Одноголосый закадровый - R.A.I.M
русские субтитры: нет-Режиссёр: Джером Сэйбл: Jerome Sable
В главных ролях: Элли МакДональд, Мит Лоаф, Дуглас Смит, Минни Драйвер, Брэндон Юрановитц, Мелани Лишман, Томас Алдерсон, Кент Нолан, Эфраим Эллис, Лиэнн Миллер-Описание: Кровожадный киллер в маске, вооруженный тесаком, терроризирует музыкально-театральную труппу, репетирующую новый спектакль, поскольку люто ненавидит мюзиклы.- -Качество: WEB-DL 720p
Формат: MKV
Видео кодек: AVC
Аудио кодек: АС3
Видео: 1280x532, 23.976 fps, ~4 021 kbps avg, 0.246 bit/pixel
Аудио #1: [RUS] 48 kHz, AC3 Dolby Digital, 2/0 (L,R) ch, ~192 kbps
Аудио #2: [ENG] 48 kHz, AC3 Dolby Digital, 3/2 (L,C,R,l,r) + LFE ch, ~384 kbps avg
субтитры: английские
навигация по главам: 16 глав

скриншоты

MediaInfo

Общее
Уникальный идентификатор : 192574767298630075436565963638984212971 (0x90E08D141011969EB6DF9CD1AEA101EB)
Полное имя : D:\Фильмы\Страх сцены\Stage Fright.2014.WEB-DL 720p.mkv
Формат : Matroska
Версия формата : Version 4 / Version 2
Размер файла : 2,89 Гбайт
Продолжительность : 1 ч. 28 м.
Общий поток : 4690 Кбит/сек
Дата кодирования : UTC 2014-04-12 10:13:51
Программа кодирования : mkvmerge v6.8.0 ('Theme for Great Cities') 32bit built on Mar 2 2014 21:27:07
Библиотека кодирования : libebml v1.3.0 + libmatroska v1.4.1
Видео
Идентификатор : 1
Формат : AVC
Формат/Информация : Advanced Video Codec
Профиль формата : Main@L3.1
Параметр CABAC формата : Нет
Параметр ReFrames формата : 2 кадра
Идентификатор кодека : V_MPEG4/ISO/AVC
Продолжительность : 1 ч. 28 м.
Битрейт : 4021 Кбит/сек
Ширина : 1280 пикселей
Высота : 532 пикселя
Соотношение сторон : 2,40:1
Режим частоты кадров : Постоянный
Частота кадров : 23,976 кадра/сек
Цветовое пространство : YUV
Субдискретизация насыщенности : 4:2:0
Битовая глубина : 8 бит
Тип развёртки : Прогрессивная
Бит/(Пиксели*Кадры) : 0.246
Размер потока : 2,48 Гбайт (86%)
Язык : English
Default : Да
Forced : Нет
Основные цвета : BT.709
Характеристики трансфера : BT.709
Коэффициенты матрицы : BT.709
Аудио #1
Идентификатор : 2
Формат : AC-3
Формат/Информация : Audio Coding 3
Расширение режима : CM (complete main)
Параметр Endianness формата : Big
Идентификатор кодека : A_AC3
Продолжительность : 1 ч. 28 м.
Вид битрейта : Постоянный
Битрейт : 192 Кбит/сек
Каналы : 2 канала
Расположение каналов : Front: L R
Частота : 48,0 КГц
Битовая глубина : 16 бит
Метод сжатия : С потерями
Размер потока : 121 Мбайт (4%)
Заголовок : VO [R.A.I.M]
Язык : Russian
Default : Да
Forced : Нет
Аудио #2
Идентификатор : 3
Формат : AC-3
Формат/Информация : Audio Coding 3
Расширение режима : CM (complete main)
Параметр Endianness формата : Big
Идентификатор кодека : A_AC3
Продолжительность : 1 ч. 28 м.
Вид битрейта : Постоянный
Битрейт : 384 Кбит/сек
Каналы : 6 каналов
Расположение каналов : Front: L C R, Side: L R, LFE
Частота : 48,0 КГц
Битовая глубина : 16 бит
Метод сжатия : С потерями
Размер потока : 242 Мбайт (8%)
Заголовок : ENG
Язык : English
Default : Нет
Forced : Нет
Текст
Идентификатор : 4
Формат : UTF-8
Идентификатор кодека : S_TEXT/UTF8
Идентификатор кодека/Информация : UTF-8 Plain Text
Заголовок : Eng Sub
Язык : English
Default : Нет
Forced : Нет
Меню
00:00:00.000 : en:1
00:06:13.000 : en:2
00:10:09.000 : en:3
00:15:08.000 : en:4
00:21:55.000 : en:5
00:25:20.000 : en:6
00:29:56.000 : en:7
00:35:08.000 : en:8
00:39:40.000 : en:9
00:45:25.000 : en:10
00:49:53.000 : en:11
00:55:15.000 : en:12
00:59:05.000 : en:13
01:05:24.000 : en:14
01:11:37.000 : en:15
01:18:37.000 : en:16
Скачать

Скачать торрент!

Как скачивать? · Что такое торрент? · Рейтинг и ограничения

Сайт не распространяет и не хранит электронные версии произведений, а лишь предоставляет доступ к создаваемому пользователями каталогу ссылок на торрент-файлы, которые содержат только списки хеш-сумм

[Профиль] [ЛС]
Показать сообщения:    
Ответить на тему

Текущее время: Сегодня 22:30

Часовой пояс: GMT + 4



Вы не можете начинать темы
Вы не можете отвечать на сообщения
Вы не можете редактировать свои сообщения
Вы не можете удалять свои сообщения
Вы не можете голосовать в опросах
Вы не можете прикреплять файлы к сообщениям
Вы не можете скачивать файлы