Кинотеатр Пени Ужасной / The Penny Dreadful Picture Show (Ник Эверхарт / Nick Everhart, Джеффри Грин / Jeffrey Green, Элиза Свенсон / Eliza Swenson) [2013, США, ужасы, WEB-DL 720p] DVO + Original (Eng) + SUB (eng)

Ответить на тему
 
Автор Сообщение

user ®

Стаж: 7 лет 7 месяцев

Сообщений: 20008

Пост Пост: #1 от 13-Апр-2014 19:10

[Цитировать]

Кинотеатр Пени Ужасной
The Penny Dreadful Picture Show
«You're invited to the undead movie party!» Страна: США
Год выпуска: 2013
Жанр: ужасы
Продолжительность: 01:42:14
Перевод: Любительский (Двухголосый закадровый) - DeadSno & den904
русские субтитры: нет-Режиссёр: Ник Эверхарт: Nick Everhart, Джеффри Грин: Jeffrey Green, Элиза Свенсон: Eliza Swenson
В главных ролях: Элиза Свенсон, Крэйг Блэр, Теодор Булукос, Тайлер Эллиот Бурк, Джеффри Комбс, Лиз Дуглас, Коллин Галиэн, Диллон Джеизелэерс, Лаки Грецинджер, Сид Хэйг, Джош Хэммонд, Тайлер Холлинджер, Алексис Яконо, Бенджамин Кейнс-Описание: Добро пожаловать в необычный кинотеатр, где Ужасная Пении вместе с двумя своими друзьями — Мертвецом Недом и Оборотнем покажет три страшные сказки, произошедшие в разные десятилетия. Вас ждет незабываемое, восхитительное путешествие по истории кино и самым темным ночным кошмарам…- -Качество: WEB-DL 720p
Формат: MKV
Видео кодек: AVC
Аудио кодек: АС3
Видео: 1278x720, 23.976 fps, ~4 098 kbps avg, 0.186 bit/pixel
Аудио #1: [RUS] 48 kHz, AC3 Dolby Digital, 2/0 (L,R) ch, ~192 kbps
Аудио #2: [ENG] 48 kHz, AC3 Dolby Digital, 2/0 (L,R) ch, ~192 kbps
субтитры: английские
навигация по главам: 10 глав

скриншоты

MediaInfo

Общее
Уникальный идентификатор : 172834750455417654888387615996335432925 (0x8206C31B2AA20DFEB0CEFA4C637524DD)
Полное имя : D:\Фильмы\Кинотеатр Пени Ужасной\The Penny Dreadful Picture Show.2013.WEB-DL 720p.mkv
Формат : Matroska
Версия формата : Version 4 / Version 2
Размер файла : 3,27 Гбайт
Продолжительность : 1 ч. 42 м.
Общий поток : 4573 Кбит/сек
Дата кодирования : UTC 2014-04-13 00:12:45
Программа кодирования : mkvmerge v6.8.0 ('Theme for Great Cities') 32bit built on Mar 2 2014 21:27:07
Библиотека кодирования : libebml v1.3.0 + libmatroska v1.4.1
Видео
Идентификатор : 1
Формат : AVC
Формат/Информация : Advanced Video Codec
Профиль формата : High@L3.1
Параметр CABAC формата : Нет
Параметр ReFrames формата : 2 кадра
Идентификатор кодека : V_MPEG4/ISO/AVC
Продолжительность : 1 ч. 42 м.
Битрейт : 4098 Кбит/сек
Ширина : 1278 пикселей
Высота : 720 пикселей
Соотношение сторон : 16:9
Режим частоты кадров : Постоянный
Частота кадров : 23,976 кадра/сек
Цветовое пространство : YUV
Субдискретизация насыщенности : 4:2:0
Битовая глубина : 8 бит
Тип развёртки : Прогрессивная
Бит/(Пиксели*Кадры) : 0.186
Размер потока : 2,93 Гбайт (90%)
Язык : English
Default : Да
Forced : Нет
Основные цвета : BT.709
Характеристики трансфера : BT.709
Коэффициенты матрицы : BT.709
Аудио #1
Идентификатор : 2
Формат : AC-3
Формат/Информация : Audio Coding 3
Расширение режима : CM (complete main)
Параметр Endianness формата : Big
Идентификатор кодека : A_AC3
Продолжительность : 1 ч. 42 м.
Вид битрейта : Постоянный
Битрейт : 192 Кбит/сек
Каналы : 2 канала
Расположение каналов : Front: L R
Частота : 48,0 КГц
Битовая глубина : 16 бит
Метод сжатия : С потерями
Размер потока : 140 Мбайт (4%)
Заголовок : DVO [DeadSno & den904]
Язык : Russian
Default : Да
Forced : Нет
Аудио #2
Идентификатор : 3
Формат : AC-3
Формат/Информация : Audio Coding 3
Расширение режима : CM (complete main)
Параметр Endianness формата : Big
Идентификатор кодека : A_AC3
Продолжительность : 1 ч. 42 м.
Вид битрейта : Постоянный
Битрейт : 192 Кбит/сек
Каналы : 2 канала
Расположение каналов : Front: L R
Частота : 48,0 КГц
Битовая глубина : 16 бит
Метод сжатия : С потерями
Размер потока : 140 Мбайт (4%)
Заголовок : ENG
Язык : English
Default : Нет
Forced : Нет
Текст
Идентификатор : 4
Формат : UTF-8
Идентификатор кодека : S_TEXT/UTF8
Идентификатор кодека/Информация : UTF-8 Plain Text
Заголовок : Eng Sub
Язык : English
Default : Нет
Forced : Нет
Меню
00:00:00.000 : en:Chapter 01
00:11:03.000 : en:Chapter 02
00:22:32.000 : en:Chapter 03
00:30:57.000 : en:Chapter 04
00:41:15.000 : en:Chapter 05
00:51:51.000 : en:Chapter 06
01:02:09.000 : en:Chapter 07
01:12:43.000 : en:Chapter 08
01:23:48.000 : en:Chapter 09
01:38:50.000 : en:Chapter 10
Скачать

Скачать торрент!

Как скачивать? · Что такое торрент? · Рейтинг и ограничения

Сайт не распространяет и не хранит электронные версии произведений, а лишь предоставляет доступ к создаваемому пользователями каталогу ссылок на торрент-файлы, которые содержат только списки хеш-сумм

[Профиль] [ЛС]
Показать сообщения:    
Ответить на тему

Текущее время: Сегодня 08:12

Часовой пояс: GMT + 4



Вы не можете начинать темы
Вы не можете отвечать на сообщения
Вы не можете редактировать свои сообщения
Вы не можете удалять свои сообщения
Вы не можете голосовать в опросах
Вы не можете прикреплять файлы к сообщениям
Вы не можете скачивать файлы