Я подарю тебе любовь (Игорь Кечаев) [2014, мелодрама, SATRip]

Ответить на тему
 
Автор Сообщение

user ®

Стаж: 7 лет 7 месяцев

Сообщений: 20008

Пост Пост: #1 от 13-Апр-2014 16:00

[Цитировать]

Я подарю тебе любовь
Жанр: мелодрама
Год выпуска: 2014
Продолжительность: 01:29:29
Режиссёр: Игорь Кечаев
В ролях: Елена Дудина, Александр Пашков, Олеся Бойко, Тамара Сёмина, Светлана Письмиченко, Иван Бровин, Степан Бекетов, Виктор Выбриенко, Ольга Калмыкова, Алёна Артёмова, Степан Пивкин, Екатерина Толубеева
Описание: Борис призван на срочную службу в "горячую точку". Дома его ждет невеста Лариса, но вскоре приходит письмо, в котором сообщается, что он пропал без вести. Друг Бориса Николай, который был тайно влюблен в Ларису, начинает настойчиво ухаживать за ней и наконец делает предложение. Девушка вынуждена его принять. Накануне ее свадьбы неожиданно возвращается Борис. Их чувства друг к другу не остыли, но узнав, что возлюбленная собирается замуж, молодой человек снова исчезает…
Сэмпл: http://yadi.sk/d/Tik3qG8WMM2W4
Качество видео: SATRip
Формат видео: AVI
Видео: XviD, 704x368, 25.00fps, 1986 Кбит/сек, 0.307 bit/pixel
Аудио: MP3, 48000 Hz, stereo, 192 Кбит/сек

MediaInfo

Общее
Полное имя : R:\Сериалы 2014\Фильмы\Я подарю тебе любовь.2014.XviD.SATRip.by.simka_1400 МБ.avi
Формат : AVI
Формат/Информация : Audio Video Interleave
Размер файла : 1,37 Гбайт
Продолжительность : 1 ч. 29 м.
Общий поток : 2188 Кбит/сек
Программа кодирования : VirtualDubModRus 1.5.10.2 (build 2542/release)
Библиотека кодирования : VirtualDubMod build 2542/release
Видео
Идентификатор : 0
Формат : MPEG-4 Visual
Профиль формата : Advanced Simple@L5
Параметр BVOP формата : 1
Параметр QPel формата : Нет
Параметр GMC формата : Без точки перехода
Параметр матрицы формата : Default (MPEG)
Идентификатор кодека : XVID
Идентификатор кодека/Подсказка : XviD
Продолжительность : 1 ч. 29 м.
Битрейт : 1986 Кбит/сек
Ширина : 704 пикселя
Высота : 368 пикселей
Соотношение сторон : 1,913
Частота кадров : 25,000 кадров/сек
Цветовое пространство : YUV
Субдискретизация насыщенности : 4:2:0
Битовая глубина : 8 бит
Тип развёртки : Прогрессивная
Метод сжатия : С потерями
Бит/(Пиксели*Кадры) : 0.307
Размер потока : 1,24 Гбайт (91%)
Библиотека кодирования : XviD 1.2.1 (UTC 2008-12-04)
Аудио
Идентификатор : 1
Формат : MPEG Audio
Версия формата : Version 1
Профиль формата : Layer 3
Режим : Joint stereo
Расширение режима : MS Stereo
Идентификатор кодека : 55
Идентификатор кодека/Подсказка : MP3
Продолжительность : 1 ч. 29 м.
Вид битрейта : Постоянный
Битрейт : 192 Кбит/сек
Каналы : 2 канала
Частота : 48,0 КГц
Метод сжатия : С потерями
Размер потока : 123 Мбайт (9%)
Выравнивание : Соединение по промежуткам
Продолжительность промежутка : 40 мс. (1,00 видеокадр)
Время предзагрузки промежутка : 504 мс.
Библиотека кодирования : LAME3.99r
Настройки программы : -m j -V 4 -q 2 -lowpass 18.6 -b 192

Скриншот c названием фильма

Скриншоты








-
Скачать

Скачать торрент!

Как скачивать? · Что такое торрент? · Рейтинг и ограничения

Сайт не распространяет и не хранит электронные версии произведений, а лишь предоставляет доступ к создаваемому пользователями каталогу ссылок на торрент-файлы, которые содержат только списки хеш-сумм

[Профиль] [ЛС]
Показать сообщения:    
Ответить на тему

Текущее время: Сегодня 08:13

Часовой пояс: GMT + 4



Вы не можете начинать темы
Вы не можете отвечать на сообщения
Вы не можете редактировать свои сообщения
Вы не можете удалять свои сообщения
Вы не можете голосовать в опросах
Вы не можете прикреплять файлы к сообщениям
Вы не можете скачивать файлы