Отель-общежитие / The Building (Вьет Линь / Linh Viet) [1998, Вьетнам, Франция, Драма, TVRip] MVO (ТВ Культура)

Ответить на тему
 
Автор Сообщение

user ®

Стаж: 11 лет

Сообщений: 15151

Пост Пост: #1 от 13-Апр-2014 11:05

[Цитировать]

Отель-общежитие / The Building
Страна: Вьетнам, Франция
Жанр: Драма
Год выпуска: 1998
Продолжительность: 01:29:27
Перевод: Профессиональный (многоголосый закадровый) ТВ Культура
Cубтитры: нет
Режиссер: Вьет Линь / Linh Viet
В ролях: Тхань Май, Хонг Ань, Дон Зыонг, Минь Чанг, Куен Линь, Ким Суан, Ле Бинь, Хыу Тиен и др.
Описание: Сайгон. 1975 год. После разгрома Южного Вьетнама новая коммунистическая власть превращает сайгонскую гостиницу "Виктория" в многоквартирный дом-общежитие для бывших партизан-вьетконговцев. Прежние хозяева бежали за границу, оставив лишь своего одинокого пожилого слугу-смотрителя Тхама, который продолжает следить за домом и помогает его новым жильцам. Скоро он так привыкает к своим новым подопечным, которые ласково называют его "дядюшка Тхам", что они становятся для него близки, словно члены одной большой семьи. Но годы идут и времена меняются. По примеру братского Советского Союза во Вьетнаме объявлена своя собственная "вьетнамская перестройка". Городу, давно уже сменившему своё название с Сайгона на "Хошимин", для развития требуются дополнительные деньги, и общежитие решено продать богатым иностранным инвесторам. Жильцов государство расселяет по новым благоустроенным квартирам, и старый смотритель Тхам снова остается один...

Доп. информация

По одноимённому роману Нгуен Хо.
1. Фильм создан при финансовой поддержке "Агентства по культурному и техническому сотрудничеству (ACCT) " международной организации сотрудничества франкоязычных стран мира ("Франкофония"), и при поддержке Министерства иностранных дел и Министерства культуры Франции.
2. "Отель-общежитие" - первый вьетнамский фильм предназначенный для коммерческого распространения в Европе.
3. Фильм основан на романе писателя Нгуен Хо и на реальных событиях из жизни женщины-режиссёра Вьет Линь.
4. Из-за ограничения финансовых средств весь фильм снимался в одной комнате, меняли только обстановку.
5. "Отель-общежитие" в 1999 году стал последним вьетнамским фильмом, показанным на Московском международном кинофестивале. До этого, с 1959 по 1985 год, вьетнамские фильмы регулярно принимали участие почти в каждом МКФ.
Фестивали:
- в 1999 году - представлен в конкурсной программе XXI Московского международного кинофестиваля.
- в 1999 году - лучший фильм фестиваля франкоязычного кино в Намюр (Бельгия).
- также принимал участие в кинофестивалях в Монреале, Фукуоке, Пусане, Токио, Мар-дель-Плата, в фестивале 3-х континентов в Нанте и др.
О режиссёре: Вьет Линь - известная вьетнамская женщина-режиссёр, её полное имя - Нгуен Вьет Линь. Родилась в 1952 году в Сайгоне, на территории марионеточного "Государства Вьетнам" в составе французской Индокитайской Федерации. Во время Второй Индокитайской войны, в 1968 году вступила в ряды вьетконговцев ("Национальный фронт освобождения Южного Вьетнама"). Свою кинематографическую карьеру начала в 1971 году со съемок документального кино. В 1980 году была направлена на обучение в Москву во ВГИК, который окончила в 1985 году. Затем работала на государственной вьетнамской киностудии "Зяй Фонг" в Хошимине. Её первый художественный фильм "В тихом краю птицы поют" вышел во Вьетнаме в 1986 году, в СССР демонстрировался в 1991 году. Её фильм "Бродячий цирк" (1988), снятый в стиле послевоенного итальянского неореализма, первые два года был запрещён к показу, но затем начал завоёвывать одну за другой награды на вьетнамском, а затем и на международных кинофестивалях и обрёл мировую известность. Вьет Линь вышла замуж за гражданина Франции, после чего стала жить на две страны - во Франции и во Вьетнаме. Благодаря своим связям в Европе, находила возможности снимать фильмы в тяжёлые для вьетнамского кинематографа 1990-е годы. В настоящее время занимается писательской деятельностью, организует презентации книг о вьетнамском и мировом кинематографе.
Год выпуска в соответствии с этим сайтом
На IMDb - но описание там ошибочное - от другого фильма...
Сэмпл
Качество видео: TVRip
Формат видео: AVI
Видео: XVID, 720*440, 16:9, 25 fps, 1185 Kbps
Аудио: MP3, 44.1 KHz, 128 Kbps, 2 channels

MediaInfo

C:\Users\dmitry\Desktop\Отель-общежитие.avi General Complete name : C:\Users\dmitry\Desktop\Отель-общежитие.avi Format : AVI Format/Info : Audio Video Interleave File size : 848 MiB Duration : 1h 29mn Overall bit rate : 1 325 Kbps Writing application : MEncoder SVN-r30881(20100311-gcc4.3.3) Writing library : MPlayer Video #0 ID : 0 Format : MPEG-4 Visual Format profile : Advanced Simple@L5 Format settings, BVOP : 2 Format settings, QPel : No Format settings, GMC : No warppoints Format settings, Matrix : Default (H.263) Codec ID : XVID Codec ID/Hint : XviD Duration : 1h 29mn Bit rate : 1 185 Kbps Width : 720 pixels Height : 440 pixels Display aspect ratio : 1.636 Original display aspect ratio : 16:9 Frame rate : 25.000 fps Color space : YUV Chroma subsampling : 4:2:0 Bit depth : 8 bits Scan type : Progressive Compression mode : Lossy Bits/(Pixel*Frame) : 0.150 Stream size : 758 MiB (89%) Writing library : XviD 1.2.1 (UTC 2008-12-04) Audio #1 ID : 1 Format : MPEG Audio Format version : Version 1 Format profile : Layer 3 Mode : Joint stereo Mode extension : MS Stereo Codec ID : 55 Codec ID/Hint : MP3 Duration : 1h 29mn Bit rate mode : Constant Bit rate : 128 Kbps Channel(s) : 2 channels Sampling rate : 44.1 KHz Compression mode : Lossy Delay relative to video : 40ms Stream size : 81.9 MiB (10%) Alignment : Aligned on interleaves Interleave, duration : 26 ms (0.65 video frame) Interleave, preload duration : 522 ms Writing library : LAME3.98

Скриншот c названием фильма

[

Скриншоты

Скачать

Скачать торрент! Отель-общежитие / The Building (Вьет Линь / Linh Viet) [1998, Вьетнам, Франция, Драма, TVRip] MVO (ТВ Культура)

Как скачивать? · Что такое торрент? · Рейтинг и ограничения

Сайт не распространяет и не хранит электронные версии произведений, а лишь предоставляет доступ к создаваемому пользователями каталогу ссылок на торрент-файлы, которые содержат только списки хеш-сумм

[Профиль] [ЛС]
Показать сообщения:    
Ответить на тему

Текущее время: Сегодня 22:15

Часовой пояс: GMT + 4



Вы не можете начинать темы
Вы не можете отвечать на сообщения
Вы не можете редактировать свои сообщения
Вы не можете удалять свои сообщения
Вы не можете голосовать в опросах
Вы не можете прикреплять файлы к сообщениям
Вы не можете скачивать файлы