Обратный отсчёт / Countdown (Наттавут Пунпирия / Nattawut Poonpiriya) [2012, Таиланд, триллер, ужасы, комедия, DVDRip] VO (Хэм)

Ответить на тему
 
Автор Сообщение

user ®

Стаж: 11 лет

Сообщений: 15151

Пост Пост: #1 от 13-Апр-2014 11:05

[Цитировать]

Обратный отсчёт / Countdown
Страна: Таиланд
Жанр: триллер, ужасы, комедия
Год выпуска: 2012
Продолжительность: 1:26:53
Перевод: Одноголосый закадровый (Хэм). Мелькает ненормативная лексика.
Cубтитры: нет
Режиссер: Наттавут Пунпирия / Nattawut Poonpiriya
В ролях: Дэвид Асаванон, Паттарасая Крюсувансри, Пачара Чиратива, Яринпорн Джункьят
Описание: Би, Джек и Пэм - трое тайских друзей, проживающих в Нью-Йорке. Близится Новый год, и чтоб хорошенько отметить праздник, они решают позвать на хату дилера с травой. Но приехавший в гости дилер Хесус оказывается мужиком своеобразным, и эта новогодняя ночь превращается в самую незабываемую в их жизни.
Доп. информация: IMDB / Кинопоиск / Ragedevil - благодарность за рип и подгонку дороги!
Качество видео: DVDRip
Формат видео: AVI
Сэмпл: http://multi-up.com/966664
Видео: XVID, 720x400, 16:9, 25,0 fps, 2043 kbps
Аудио: MP3, 48 kHz, 192 kbps, 2.0

MediaInfo

General
Complete name : D:\Movs\Countdown.2012.Rus.avi
Format : AVI
Format/Info : Audio Video Interleave
File size : 1.36 GiB
Duration : 1h 26mn
Overall bit rate : 2 244 Kbps
Writing application : VirtualDubMod 1.5.10.3 (build 2550/release)
Writing library : VirtualDub build 32817/release
Video
ID : 0
Format : MPEG-4 Visual
Format profile : Advanced Simple@L5
Format settings, BVOP : 2
Format settings, QPel : No
Format settings, GMC : No warppoints
Format settings, Matrix : Default (MPEG)
Codec ID : XVID
Codec ID/Hint : XviD
Duration : 1h 26mn
Bit rate : 2 043 Kbps
Width : 720 pixels
Height : 400 pixels
Display aspect ratio : 16:9
Frame rate : 25.000 fps
Color space : YUV
Chroma subsampling : 4:2:0
Bit depth : 8 bits
Scan type : Progressive
Compression mode : Lossy
Bits/(Pixel*Frame) : 0.284
Stream size : 1.24 GiB (91%)
Writing library : XviD 1.2.1 (UTC 2008-12-04)
Audio
ID : 1
Format : MPEG Audio
Format version : Version 1
Format profile : Layer 3
Mode : Joint stereo
Codec ID : 55
Codec ID/Hint : MP3
Duration : 1h 26mn
Bit rate mode : Constant
Bit rate : 192 Kbps
Channel(s) : 2 channels
Sampling rate : 48.0 KHz
Compression mode : Lossy
Stream size : 119 MiB (9%)
Alignment : Split accross interleaves
Interleave, duration : 40 ms (1.00 video frame)
Interleave, preload duration : 500 ms

Скриншот c названием фильма

Скриншоты

Скачать

Скачать торрент! Обратный отсчёт / Countdown (Наттавут Пунпирия / Nattawut Poonpiriya) [2012, Таиланд, триллер, ужасы, комедия, DVDRip] VO (Хэм)

Как скачивать? · Что такое торрент? · Рейтинг и ограничения

Сайт не распространяет и не хранит электронные версии произведений, а лишь предоставляет доступ к создаваемому пользователями каталогу ссылок на торрент-файлы, которые содержат только списки хеш-сумм

[Профиль] [ЛС]
Показать сообщения:    
Ответить на тему

Текущее время: Сегодня 10:28

Часовой пояс: GMT + 4



Вы не можете начинать темы
Вы не можете отвечать на сообщения
Вы не можете редактировать свои сообщения
Вы не можете удалять свои сообщения
Вы не можете голосовать в опросах
Вы не можете прикреплять файлы к сообщениям
Вы не можете скачивать файлы